<?xml version="1.0" standalone="no"?>
<!DOCTYPE svg PUBLIC "-//W3C//DTD SVG 1.1//EN" "http://www.w3.org/Graphics/SVG/1.1/DTD/svg11.dtd" >
<svg xmlns="http://www.w3.org/2000/svg" xmlns:xlink="http://www.w3.org/1999/xlink" version="1.1">
<metadata></metadata>
<defs>
<font id="hans_kendrickregular" horiz-adv-x="1310" >
<font-face units-per-em="2048" ascent="1638" descent="-410" />
<missing-glyph horiz-adv-x="614" />
<glyph horiz-adv-x="0" />
<glyph horiz-adv-x="682" />
<glyph unicode=" "  horiz-adv-x="614" />
<glyph unicode="&#x09;" horiz-adv-x="614" />
<glyph unicode="&#xa0;" horiz-adv-x="614" />
<glyph unicode="!" horiz-adv-x="643" d="M223 80q0 42 28.5 70t70.5 28t70 -28t28 -70q0 -44 -28 -72t-70 -28t-70.5 28t-28.5 72zM246 403v1153h153v-1153h-153z" />
<glyph unicode="&#x22;" horiz-adv-x="804" d="M139 1536h193l-41 -487h-111zM467 1536h192l-41 -487h-110z" />
<glyph unicode="#" horiz-adv-x="1525" d="M162 334l18 135h221l66 467h-219l18 135h217l47 334h160l-47 -334h338l47 334h160l-47 -334h219l-19 -135h-221l-63 -467h217l-17 -135h-219l-47 -334h-160l48 334h-338l-47 -334h-160l47 334h-219zM559 469h338l66 467h-338z" />
<glyph unicode="$" horiz-adv-x="1214" d="M119 260l137 59q96 -169 293 -190v590q-55 24 -93 42t-84 45.5t-76 57t-57 68t-40 87t-13 105.5q0 156 101 276.5t262 155.5v164h127v-161q190 -37 317 -220l-141 -61q-74 96 -176 125v-576q67 -28 114.5 -51.5t100 -61t84.5 -78.5t53 -100t21 -130q0 -154 -104.5 -266.5 t-268.5 -153.5v-170h-127v159q-140 11 -251 82.5t-179 202.5zM336 1124q0 -76 51.5 -131.5t161.5 -109.5v516q-101 -36 -157 -110.5t-56 -164.5zM676 145q105 37 164 105.5t59 155.5t-54 144t-169 114v-519z" />
<glyph unicode="%" horiz-adv-x="1472" d="M160 0l973 1536h178l-973 -1536h-178zM164 1253q0 126 89 214.5t214 88.5t213 -88.5t88 -214.5t-88 -214.5t-213 -88.5t-214 88.5t-89 214.5zM297 1253q0 -71 49.5 -120.5t120.5 -49.5t120.5 49.5t49.5 120.5q0 69 -50 119.5t-120 50.5t-120 -50.5t-50 -119.5zM702 283 q0 126 89.5 214.5t214.5 88.5q124 0 213.5 -89t89.5 -214t-89.5 -214t-213.5 -89q-125 0 -214.5 88.5t-89.5 214.5zM834 283q0 -70 50.5 -120t121.5 -50q68 0 119 50t51 120q0 71 -50.5 120.5t-119.5 49.5q-71 0 -121.5 -49.5t-50.5 -120.5z" />
<glyph unicode="&#x26;" horiz-adv-x="1458" d="M81 474q0 207 146 355l101 99q-102 105 -102 250q0 148 104 254q104 104 251 104t250 -104q101 -101 101 -242q0 -147 -109 -275l-106 109q64 80 64 165q0 78 -56 134q-60 60 -144 60q-85 0 -143 -60q-60 -60 -60 -144q0 -85 60 -145l596 -598l236 238l108 -109 l-235 -237l231 -232l-108 -108l-232 231l-100 -100q-146 -146 -352 -146q-100 0 -192.5 38t-162.5 108q-146 148 -146 355zM234 474q0 -144 102 -247q101 -101 245 -101t246 101l99 101l-490 493l-100 -100q-102 -103 -102 -247z" />
<glyph unicode="'" horiz-adv-x="477" d="M143 1536h191l-41 -487h-109z" />
<glyph unicode="(" horiz-adv-x="972" d="M225 532q0 70 5 147t20 177.5t38.5 192.5t64.5 184.5t94 161.5t130.5 115.5t170.5 54.5v-152q-67 -9 -123.5 -53t-94 -107t-67.5 -146t-46.5 -162.5t-27.5 -163.5t-14.5 -143t-3.5 -106t3.5 -106.5t14.5 -143t27.5 -163t46.5 -161.5t67.5 -145t94 -106.5t123.5 -52.5 v-152q-93 8 -170.5 54.5t-130.5 115t-94 160.5t-64.5 183.5t-38.5 191.5t-20 177t-5 148z" />
<glyph unicode=")" horiz-adv-x="972" d="M225 -346q67 9 123.5 52.5t94 106.5t67.5 145t46.5 161.5t27.5 163t14.5 143t3.5 106.5t-3.5 106t-14.5 143t-27.5 163.5t-46.5 162.5t-67.5 146t-94 107t-123.5 53v152q93 -8 170.5 -54.5t130.5 -115.5t94 -161.5t64.5 -184.5t38.5 -192.5t20 -177.5t5 -147 q0 -71 -5 -148t-20 -177t-38.5 -191.5t-64.5 -183.5t-94 -160.5t-130.5 -115t-170.5 -54.5v152z" />
<glyph unicode="*" horiz-adv-x="737" d="M68 1278v121l247 -31l-153 199l108 61l97 -229l96 229l108 -61l-153 -199l248 31v-121l-248 31l153 -199l-108 -61l-96 229l-97 -229l-108 61l153 199z" />
<glyph unicode="+" horiz-adv-x="1429" d="M143 426v123h508v479h127v-479h508v-123h-508v-479h-127v479h-508z" />
<glyph unicode="," horiz-adv-x="520" d="M119 -240l90 447h192l-163 -447h-119z" />
<glyph unicode="-" horiz-adv-x="958" d="M123 422v133h713v-133h-713z" />
<glyph unicode="." horiz-adv-x="561" d="M158 100q0 51 35 87t86 36q50 0 86 -36t36 -87q0 -50 -36 -85t-86 -35q-51 0 -86 34.5t-35 85.5z" />
<glyph unicode="/" horiz-adv-x="1333" d="M59 -502l1043 2058h151l-1042 -2058h-152z" />
<glyph unicode="0" horiz-adv-x="1417" d="M164 772q0 82 13.5 170t40.5 178.5t72 170t103.5 142.5t140 99.5t175.5 36.5t175.5 -36.5t139.5 -99.5t103 -142.5t72 -170t40.5 -178t13.5 -170.5q0 -92 -15 -185t-44 -182.5t-75.5 -167t-105 -136t-137 -92.5t-167.5 -34t-167.5 34t-137 92.5t-105 136t-76 167 t-44.5 182.5t-15 185zM319 774q0 -71 8.5 -143t26.5 -147t49 -139t72.5 -115t101.5 -80t132 -29q84 0 152 42.5t111 110t72.5 155t41.5 172t12 167.5t-11 167t-39.5 173.5t-71 158t-112 112.5t-155.5 44q-85 0 -154 -44t-112 -112t-72 -157t-40.5 -172.5t-11.5 -163.5z" />
<glyph unicode="1" horiz-adv-x="837" d="M246 1391v145h274v-1536h-151v1391h-123z" />
<glyph unicode="2" horiz-adv-x="1294" d="M162 0l596 705q110 127 149 190q70 111 70 215q0 133 -89 223t-220 90q-133 0 -215.5 -89t-96.5 -242h-155q20 219 145 348t318 129q195 0 330.5 -130t135.5 -329q0 -149 -102 -305q-27 -42 -57 -80.5t-82 -98.5t-64 -75l-342 -406h645v-145h-966z" />
<glyph unicode="3" horiz-adv-x="1296" d="M135 401h148q32 -130 122 -205t207 -75q134 0 232 96t98 234q0 141 -97.5 231t-232.5 90h-45v146h45q81 0 140.5 38t86.5 94t27 119q0 103 -72 178.5t-182 75.5q-97 0 -171 -70.5t-97 -187.5h-151q30 183 148.5 293.5t270.5 110.5q164 0 285 -118.5t121 -281.5 q0 -178 -166 -317q240 -160 240 -401q0 -94 -39 -182t-103.5 -152.5t-153 -103t-184.5 -38.5q-174 0 -308 118.5t-169 307.5z" />
<glyph unicode="4" horiz-adv-x="1378" d="M57 301l959 1298v-1150h196v-148h-196v-301h-146v301h-813zM342 449h528v716z" />
<glyph unicode="5" horiz-adv-x="1296" d="M162 229l121 88q66 -95 152 -145.5t181 -50.5q145 0 254 102.5t109 259.5q0 153 -107 257t-256 104q-67 0 -172 -31l-90 74l160 649h586v-145h-467l-103 -416q51 10 113 10q208 0 349 -148.5t141 -357.5q0 -147 -69 -262.5t-188 -178.5t-266 -63q-131 0 -245.5 64 t-202.5 190z" />
<glyph unicode="6" horiz-adv-x="1433" d="M205 481q0 163 129 348l487 707h174l-397 -567q63 16 143 16q133 0 246 -69t177.5 -185t64.5 -250q0 -141 -69.5 -257.5t-187 -182.5t-255.5 -66q-215 0 -363.5 146t-148.5 360zM358 481q0 -151 105 -255.5t254 -104.5t253.5 104.5t104.5 255.5q0 149 -104.5 254 t-253.5 105t-254 -105t-105 -254z" />
<glyph unicode="7" horiz-adv-x="1193" d="M102 0l848 1391h-803v145h1072l-936 -1536h-181z" />
<glyph unicode="8" horiz-adv-x="1286" d="M164 451q0 120 60.5 222t176.5 179q-163 135 -163 317q0 164 120 282t285 118t285.5 -118t120.5 -282q0 -179 -166 -317q239 -154 239 -401q0 -126 -66 -236.5t-176.5 -175t-236.5 -64.5t-236.5 64.5t-176.5 175t-66 236.5zM311 451q0 -138 97 -234t235 -96t235 96 t97 234q0 137 -96.5 229t-235.5 92t-235.5 -92t-96.5 -229zM387 1169q0 -104 75 -177.5t181 -73.5q105 0 180.5 73.5t75.5 177.5q0 103 -76 178.5t-180 75.5q-105 0 -180.5 -75.5t-75.5 -178.5z" />
<glyph unicode="9" horiz-adv-x="1433" d="M203 1030q0 141 69.5 257.5t187 182.5t255.5 66q215 0 363.5 -146t148.5 -360q0 -163 -129 -348l-488 -707h-174l398 568q-67 -17 -144 -17q-133 0 -245.5 69t-177 185t-64.5 250zM356 1030q0 -149 105 -253.5t254 -104.5t253.5 104.5t104.5 253.5q0 151 -104.5 256 t-253.5 105t-254 -105t-105 -256z" />
<glyph unicode=":" horiz-adv-x="561" d="M158 100q0 51 35 87t86 36q50 0 86 -36t36 -87q0 -50 -36 -85t-86 -35q-51 0 -86 34.5t-35 85.5zM158 860q0 51 35 87t86 36q50 0 86 -36t36 -87t-36 -86t-86 -35q-51 0 -86 35t-35 86z" />
<glyph unicode=";" horiz-adv-x="520" d="M119 -240l90 447h192l-163 -447h-119zM160 860q0 51 35 87t86 36q50 0 86 -36t36 -87t-36 -86t-86 -35q-51 0 -86 35t-35 86z" />
<glyph unicode="&#x3c;" horiz-adv-x="1177" d="M143 432v133l824 400l65 -131l-690 -338l692 -367l-69 -131z" />
<glyph unicode="=" horiz-adv-x="1177" d="M143 244v123h891v-123h-891zM143 594v123h891v-123h-891z" />
<glyph unicode="&#x3e;" horiz-adv-x="1177" d="M141 129l690 367l-688 338l66 131l821 -400v-133l-819 -434z" />
<glyph unicode="?" horiz-adv-x="1026" d="M98 1139q13 186 130.5 301.5t281.5 115.5q168 0 289 -121t121 -292q0 -98 -44.5 -173.5t-123.5 -154.5q-5 -5 -28 -27t-34 -34q-106 -102 -106 -181v-170h-148v172q0 58 25 111.5t62 92.5t81 83t81 82.5t62 90.5t25 108q0 108 -77 186t-185 78q-103 0 -178 -74t-88 -194 h-146zM412 80q0 42 28 70t70 28t70 -28t28 -70q0 -44 -28 -72t-70 -28t-70 28t-28 72z" />
<glyph unicode="@" horiz-adv-x="1107" d="M164 492q0 133 65.5 246t178 179t245.5 66q72 0 136 -23t109.5 -77t45.5 -131v-504h-117v28q-63 -47 -145 -47q-107 0 -184.5 78t-77.5 185t77.5 184.5t184.5 77.5q78 0 145 -49v47q0 31 -16 53.5t-43 35t-55.5 18t-59.5 5.5q-154 0 -263 -109t-109 -263t109.5 -264.5 t262.5 -110.5h281v-117h-281q-133 0 -245.5 66t-178 179.5t-65.5 246.5zM539 492q0 -61 41.5 -103.5t101.5 -42.5q61 0 103 42t42 104t-41.5 103.5t-103.5 41.5q-60 0 -101.5 -42t-41.5 -103z" />
<glyph unicode="A" horiz-adv-x="1372" d="M10 0l676 1597l676 -1597h-164l-139 330h-744l-139 -330h-166zM373 469h628l-315 752z" />
<glyph unicode="B" horiz-adv-x="1208" d="M184 0v1536h475q175 0 300.5 -125.5t125.5 -302.5q0 -92 -40 -179.5t-127 -144.5q102 -56 155 -156t53 -200q0 -177 -125.5 -302.5t-300.5 -125.5h-516zM338 150h362q116 0 197.5 81.5t81.5 196.5q0 114 -80 199.5t-194 85.5h-367v-563zM338 852h367q112 0 172.5 71 t60.5 185q0 115 -81.5 196.5t-197.5 81.5h-321v-534z" />
<glyph unicode="C" horiz-adv-x="1558" d="M143 768q0 128 40 248t113 217t170 170t217.5 113t248.5 40q319 0 565 -237l-108 -100q-117 103 -227.5 145.5t-229.5 42.5q-130 0 -248 -50.5t-204 -136.5t-136.5 -204t-50.5 -248t50.5 -248t136.5 -204t204 -136.5t248 -50.5q117 0 226 42t231 146l110 -98 q-248 -239 -567 -239q-128 0 -248.5 40t-217.5 113t-170 170t-113 217t-40 248z" />
<glyph unicode="D" horiz-adv-x="1423" d="M184 0v1536h346q237 0 415 -89.5t277 -263t99 -411.5q0 -357 -216.5 -564.5t-574.5 -207.5h-346zM340 150h190q297 0 469 163t172 459q0 295 -171.5 454.5t-469.5 159.5h-190v-1236z" />
<glyph unicode="E" horiz-adv-x="1110" d="M184 0v1536h783v-150h-629v-542h549v-152h-549v-542h629v-150h-783z" />
<glyph unicode="F" horiz-adv-x="1028" d="M184 0v1536h783v-150h-629v-542h569v-152h-569v-692h-154z" />
<glyph unicode="G" horiz-adv-x="1699" d="M164 768q0 160 62.5 306t168 251.5t251.5 168t306 62.5q287 0 521 -196l-101 -109q-205 156 -420 156q-130 0 -248 -50.5t-204 -136.5t-136.5 -204t-50.5 -248t50.5 -248t136.5 -204t204 -136.5t248 -50.5q234 0 416 154v409h-438v152h586v-844h-148v100 q-113 -65 -211 -92.5t-205 -27.5q-160 0 -306 62.5t-251.5 168t-168 251.5t-62.5 306z" />
<glyph unicode="H" horiz-adv-x="1460" d="M184 0v1536h146v-692h800v692h146v-1536h-146v692h-800v-692h-146z" />
<glyph unicode="I" horiz-adv-x="512" d="M180 0v1536h154v-1536h-154z" />
<glyph unicode="J" horiz-adv-x="731" d="M92 0v158q95 -29 168 -29q60 0 94.5 41t34.5 98v1268h158v-1268q0 -120 -85 -204t-202 -84q-88 0 -168 20z" />
<glyph unicode="K" horiz-adv-x="1239" d="M184 0v1536h148v-684l678 684h211l-764 -768l764 -768h-211l-678 684v-684h-148z" />
<glyph unicode="L" horiz-adv-x="913" d="M184 0v1536h154v-1386h493v-150h-647z" />
<glyph unicode="M" horiz-adv-x="1785" d="M184 0v1597l709 -991l709 991v-1597h-146v1126l-563 -778l-563 778v-1126h-146z" />
<glyph unicode="N" horiz-adv-x="1515" d="M184 -2v1599l1002 -1249v1188h145v-1612l-1001 1235v-1161h-146z" />
<glyph unicode="O" horiz-adv-x="1830" d="M123 768q0 107 28.5 209t80 188.5t125 159t160 123.5t189 79.5t209.5 28.5q160 0 306.5 -62.5t253 -168t170 -251.5t63.5 -306t-63.5 -306.5t-170 -251.5t-253 -167.5t-306.5 -62.5t-306.5 62.5t-253 167.5t-169.5 251.5t-63 306.5zM272 768q0 -129 51.5 -247.5t138 -204 t205.5 -136.5t248 -51t248 51t205.5 136.5t138.5 204t52 247.5t-52 247.5t-138.5 204t-205.5 136.5t-248 51q-130 0 -248.5 -51t-205 -136.5t-138 -203.5t-51.5 -248z" />
<glyph unicode="P" horiz-adv-x="1134" d="M184 0v1536h461q177 0 302.5 -126t125.5 -304t-125.5 -303t-302.5 -125h-309v-678h-152zM336 829h309q117 0 199 81t82 196q0 116 -82 198t-199 82h-309v-557z" />
<glyph unicode="Q" horiz-adv-x="1871" d="M143 768q0 160 63.5 306t170 251.5t253 168t306.5 62.5t306.5 -62.5t253 -168t170 -251.5t63.5 -306q0 -287 -199 -522l162 -162l-107 -107l-166 166q-225 -163 -483 -163q-160 0 -306.5 62.5t-253 167.5t-170 251.5t-63.5 306.5zM293 768q0 -130 51.5 -248t138 -203.5 t205 -136.5t248.5 -51q195 0 375 123l-199 199l107 106l204 -205q156 187 156 416q0 129 -51.5 247.5t-138 204t-205.5 136.5t-248 51q-130 0 -248.5 -51t-205 -136.5t-138 -203.5t-51.5 -248z" />
<glyph unicode="R" horiz-adv-x="1189" d="M184 0v1536h461q175 0 300.5 -126t125.5 -304q0 -132 -77.5 -241.5t-215.5 -162.5l350 -702h-165l-338 678h-287v-678h-154zM338 829h307q117 0 198 80.5t81 196.5q0 115 -81.5 197.5t-197.5 82.5h-307v-557z" />
<glyph unicode="S" horiz-adv-x="1112" d="M80 266l137 60q52 -94 137 -144.5t176 -50.5q124 0 227 80.5t103 200.5q0 48 -16.5 86.5t-51 69t-68.5 51.5t-87 47q-27 13 -131 55q-62 25 -106 47t-95.5 58t-83 75.5t-53 97t-21.5 125.5q0 179 127.5 305.5t305.5 126.5q220 0 374 -217l-141 -61q-95 127 -233 127 q-115 0 -199 -83.5t-84 -197.5q0 -47 16.5 -85t49.5 -67t69 -50.5t88 -44.5q26 -12 80.5 -34t86 -35.5t80.5 -38t78.5 -46t64.5 -55t54 -69t32.5 -84t13.5 -103.5q0 -93 -41.5 -175t-108.5 -137.5t-153.5 -87.5t-176.5 -32q-134 0 -256.5 74t-193.5 212z" />
<glyph unicode="T" horiz-adv-x="968" d="M10 1386v150h948v-150h-403v-1386h-141v1386h-404z" />
<glyph unicode="U" horiz-adv-x="1331" d="M174 432v1104h148v-1104q0 -120 98 -211.5t246 -91.5q150 0 247 91t97 212v1104h147v-1104q0 -119 -65 -223t-178.5 -166.5t-247.5 -62.5q-132 0 -246 62.5t-180 167t-66 222.5z" />
<glyph unicode="V" horiz-adv-x="1372" d="M10 1536h166l510 -1235l512 1235h164l-676 -1612z" />
<glyph unicode="W" horiz-adv-x="1996" d="M-61 1536h167l592 -1255l217 452l-374 803h168l290 -627l291 627h166l-373 -803l217 -452l592 1255h166l-755 -1604l-304 627l-299 -627z" />
<glyph unicode="X" horiz-adv-x="1232" d="M20 0l510 772l-503 764h172l417 -635l420 635h170l-504 -764l510 -772h-172l-424 643l-423 -643h-173z" />
<glyph unicode="Y" horiz-adv-x="1222" d="M20 1536h173l417 -635l420 635h172l-520 -786v-750h-143v750z" />
<glyph unicode="Z" horiz-adv-x="1286" d="M61 0l883 1393h-840v143h1100l-885 -1393h885v-143h-1143z" />
<glyph unicode="[" horiz-adv-x="630" d="M143 -502v2038h344v-152h-219v-1734h219v-152h-344z" />
<glyph unicode="\" horiz-adv-x="1333" d="M80 1556h151l1043 -2058h-152z" />
<glyph unicode="]" horiz-adv-x="630" d="M139 -350h223v1734h-219v152h344v-2038h-348v152z" />
<glyph unicode="^" horiz-adv-x="841" d="M-428 1153l350 739h158l350 -739h-151l-279 633l-279 -633h-149z" />
<glyph unicode="_" horiz-adv-x="1429" d="M143 0h1143v-133h-1143v133z" />
<glyph unicode="`" horiz-adv-x="0" d="M-371 1536h205l213 -362h-125z" />
<glyph unicode="a" d="M123 481q0 136 67.5 251.5t183 183t251.5 67.5q101 0 195.5 -39.5t162.5 -112.5v132h143v-963h-143v131q-68 -73 -162.5 -112t-195.5 -39q-136 0 -251.5 67t-183 182.5t-67.5 251.5zM266 481q0 -148 105.5 -253t253.5 -105t253 105t105 253t-105 253.5t-253 105.5 t-253.5 -105.5t-105.5 -253.5z" />
<glyph unicode="b" d="M184 0v1536h144v-705q68 73 162.5 112.5t195.5 39.5q136 0 251.5 -67.5t183 -183t67.5 -251.5t-67.5 -251.5t-183 -182.5t-251.5 -67q-101 0 -195.5 39t-162.5 112v-131h-144zM328 481q0 -148 105 -253t253 -105t253 105t105 253t-105 253.5t-253 105.5t-253 -105.5 t-105 -253.5z" />
<glyph unicode="c" horiz-adv-x="1187" d="M123 481q0 136 67.5 251.5t183 183t251.5 67.5q150 0 274 -82.5t186 -220.5l-131 -55q-43 98 -133 156.5t-196 58.5q-148 0 -253.5 -105.5t-105.5 -253.5t105.5 -253t253.5 -105q106 0 196 58.5t131 156.5l131 -59q-57 -134 -184 -216.5t-274 -82.5q-136 0 -251.5 67 t-183 182.5t-67.5 251.5z" />
<glyph unicode="d" d="M123 481q0 136 67.5 251.5t183 183t251.5 67.5q101 0 195.5 -39.5t162.5 -112.5v705h143v-1536h-143v131q-68 -73 -162.5 -112t-195.5 -39q-136 0 -251.5 67t-183 182.5t-67.5 251.5zM266 481q0 -148 105.5 -253t253.5 -105t253 105t105 253t-105 253.5t-253 105.5 t-253.5 -105.5t-105.5 -253.5z" />
<glyph unicode="e" horiz-adv-x="1249" d="M123 481q0 136 67.5 251.5t183 183t251.5 67.5t251.5 -67.5t182.5 -183t67 -251.5h-860q0 -148 105.5 -253t253.5 -105q106 0 196 58.5t131 156.5l131 -59q-57 -134 -184 -216.5t-274 -82.5q-136 0 -251.5 67t-183 182.5t-67.5 251.5zM289 604h672q-43 107 -135 171.5 t-201 64.5t-201 -64.5t-135 -171.5z" />
<glyph unicode="f" horiz-adv-x="661" d="M102 819v144h146v315q0 118 84 202.5t203 84.5q59 0 86 -15v-157q-36 28 -86 28q-60 0 -102 -41.5t-42 -101.5v-315h230v-144h-230v-819h-143v819h-146z" />
<glyph unicode="g" d="M123 481q0 136 67.5 251.5t183 183t251.5 67.5q206 0 358 -152v132h143v-963q0 -136 -67 -251.5t-182.5 -183t-251.5 -67.5q-151 0 -274 81.5t-185 217.5l131 60q43 -99 130.5 -157t197.5 -58q148 0 253 105t105 253v131q-151 -151 -358 -151q-136 0 -251.5 67 t-183 182.5t-67.5 251.5zM266 481q0 -148 105.5 -253t253.5 -105t253 105t105 253q0 149 -104.5 254t-253.5 105q-148 0 -253.5 -105.5t-105.5 -253.5z" />
<glyph unicode="h" horiz-adv-x="1095" d="M184 0v1536h144v-674q39 53 106 87t150 34q151 0 249.5 -108.5t98.5 -264.5v-610h-144v610q0 99 -61 164.5t-158 65.5q-94 0 -167.5 -66t-73.5 -158v-616h-144z" />
<glyph unicode="i" horiz-adv-x="561" d="M174 1239q0 44 31.5 75.5t75.5 31.5t75 -31.5t31 -75.5t-31 -75t-75 -31t-75.5 31t-31.5 75zM209 0v963h143v-963h-143z" />
<glyph unicode="j" horiz-adv-x="561" d="M174 1239q0 44 31.5 75.5t75.5 31.5t75 -31.5t31 -75.5t-31 -75t-75 -31t-75.5 31t-31.5 75zM209 -502v1465h143v-1465h-143z" />
<glyph unicode="k" horiz-adv-x="1019" d="M184 0v1536h144v-965l389 392h207l-475 -459l530 -504h-207l-444 436v-436h-144z" />
<glyph unicode="l" horiz-adv-x="512" d="M184 0v1536h144v-1536h-144z" />
<glyph unicode="m" horiz-adv-x="1699" d="M184 0v963h144v-101q43 58 111.5 89.5t144.5 31.5q91 0 164.5 -41.5t119.5 -112.5q57 72 142.5 113t177.5 41q153 0 250.5 -108.5t97.5 -264.5v-610h-143v610q0 94 -62.5 162t-154.5 68q-95 0 -169.5 -66t-74.5 -158v-616h-144v610q0 94 -62 162t-157 68 q-94 0 -167.5 -66t-73.5 -158v-616h-144z" />
<glyph unicode="n" horiz-adv-x="1095" d="M184 0v963h144v-101q43 58 111.5 89.5t144.5 31.5q153 0 250.5 -108.5t97.5 -264.5v-610h-144v610q0 94 -62 162t-157 68q-94 0 -167.5 -66t-73.5 -158v-616h-144z" />
<glyph unicode="o" horiz-adv-x="1249" d="M123 481q0 136 67.5 251.5t183 183t251.5 67.5t251.5 -67.5t182.5 -183t67 -251.5q0 -102 -40 -194.5t-107 -159.5t-159.5 -107t-194.5 -40q-136 0 -251.5 67t-183 182.5t-67.5 251.5zM266 481q0 -148 105.5 -253t253.5 -105t253 105t105 253t-105 253.5t-253 105.5 t-253.5 -105.5t-105.5 -253.5z" />
<glyph unicode="p" d="M184 -502v1465h144v-132q68 73 162.5 112.5t195.5 39.5q100 0 193 -40.5t160.5 -108t108 -160.5t40.5 -193t-40.5 -192.5t-108 -160t-160.5 -108t-193 -40.5q-101 0 -195.5 39t-162.5 112v-633h-144zM328 481q0 -148 105 -253t253 -105t253 105t105 253t-105 253.5 t-253 105.5t-253 -105.5t-105 -253.5z" />
<glyph unicode="q" d="M123 481q0 136 67.5 251.5t183 183t251.5 67.5q101 0 195.5 -39.5t162.5 -112.5v132h143v-1465h-143v633q-68 -73 -162.5 -112t-195.5 -39q-136 0 -251.5 67t-183 182.5t-67.5 251.5zM266 481q0 -148 105.5 -253t253.5 -105t253 105t105 253t-105 253.5t-253 105.5 t-253.5 -105.5t-105.5 -253.5z" />
<glyph unicode="r" horiz-adv-x="747" d="M184 0v963h144v-127q38 69 101.5 108t142.5 39q57 0 114 -20v-144q-62 21 -114 21q-112 0 -178 -83t-66 -227v-530h-144z" />
<glyph unicode="s" horiz-adv-x="784" d="M82 193l133 57q7 -55 59.5 -91t112.5 -36q66 0 119 40t53 103q0 37 -25 65t-65 47t-88 37t-96.5 41t-88.5 52.5t-65 77.5t-25 110q0 118 84 202.5t203 84.5q86 0 156.5 -46t105.5 -124l-131 -57q-19 38 -54.5 61t-76.5 23q-60 0 -101.5 -42t-41.5 -102q0 -36 25 -64 t65 -47t88 -37t96 -41t88 -52.5t65 -78t25 -110.5q0 -122 -95.5 -204t-219.5 -82q-102 0 -189.5 58t-115.5 155z" />
<glyph unicode="t" horiz-adv-x="692" d="M102 819v144h166v342h144v-342h178v-144h-178v-819h-144v819h-166z" />
<glyph unicode="u" horiz-adv-x="1058" d="M154 354v609h143v-609q0 -94 68.5 -162.5t162.5 -68.5q96 0 165 68.5t69 162.5v609h143v-609q0 -155 -110.5 -264.5t-266.5 -109.5q-155 0 -264.5 109.5t-109.5 264.5z" />
<glyph unicode="v" horiz-adv-x="1044" d="M61 963h160l305 -689h4l295 689h158l-430 -963h-53z" />
<glyph unicode="w" horiz-adv-x="1576" d="M61 963h158l281 -678h4l270 678h25l272 -678h4l281 678h160l-418 -963h-60l-250 629h-4l-249 -629h-60z" />
<glyph unicode="x" horiz-adv-x="1099" d="M61 0l396 481l-396 482h187l301 -369l303 369h186l-395 -482l395 -481h-186l-303 369l-301 -369h-187z" />
<glyph unicode="y" horiz-adv-x="1085" d="M61 963h164l336 -746l303 746h160l-623 -1465h-157l241 559z" />
<glyph unicode="z" horiz-adv-x="997" d="M41 0v8l623 821h-558v134h830l-625 -832h623v-131h-893z" />
<glyph unicode="{" horiz-adv-x="753" d="M174 471v123q37 21 61.5 47t38.5 51t21 64t8.5 71.5t1.5 87.5v371q0 103 50 188t137 85h88v-140q-80 -6 -112 -38t-32 -115v-379q0 -229 -131 -355q131 -126 131 -354v-381q0 -83 32 -115t112 -38v-140h-88q-87 0 -137 85t-50 188v373q0 133 -16 190q-22 78 -115 131z " />
<glyph unicode="|" horiz-adv-x="512" d="M178 -465v2001h154v-2001h-154z" />
<glyph unicode="}" horiz-adv-x="753" d="M174 -356q80 6 111.5 38t31.5 115v381q0 227 132 354q-132 127 -132 355v379q0 83 -31.5 115t-111.5 38v140h88q87 0 137 -85t50 -188v-371q0 -55 1.5 -87.5t8.5 -71.5t21 -64t38.5 -51t61.5 -47v-123q-93 -53 -115 -131q-16 -57 -16 -190v-373q0 -103 -50 -188t-137 -85 h-88v140z" />
<glyph unicode="~" horiz-adv-x="0" d="M-389 1698q56 89 106.5 129.5t112.5 40.5q68 0 174 -53q5 -2 26.5 -13t33 -16.5t29 -11t30.5 -5.5q7 0 14.5 2t14.5 7.5t12.5 10t12.5 13.5t10.5 14t10 16.5t8.5 15t8 14.5l7 12l127 -43q-100 -176 -219 -176q-47 0 -102.5 25.5t-106.5 51t-86 25.5q-21 0 -42.5 -22 t-29.5 -37l-24 -45z" />
<glyph unicode="&#xa1;" horiz-adv-x="643" d="M223 1458q0 42 28.5 70t70.5 28t70 -28t28 -70q0 -44 -28 -72t-70 -28t-70.5 28t-28.5 72zM246 -20v1153h153v-1153h-153z" />
<glyph unicode="&#xa2;" horiz-adv-x="1167" d="M123 481q0 186 120.5 324.5t311.5 173.5v174h129v-174q267 -45 403 -301l-135 -57q-88 164 -268 206v-692q92 22 156.5 72t109.5 135l135 -61q-127 -251 -401 -297v-170h-129v170q-191 35 -311.5 173t-120.5 324zM270 481q0 -120 76.5 -214.5t208.5 -129.5v688 q-132 -35 -208.5 -129.5t-76.5 -214.5z" />
<glyph unicode="&#xa3;" horiz-adv-x="1654" d="M326 -23v78l84 56q68 45 108 78.5t70 76.5t41.5 92.5t11.5 118.5q0 104 -33 318q0 2 -4 34h-168v146h160q14 238 139 389q67 79 161.5 125.5t188.5 46.5h273v-145h-273q-57 0 -123 -30t-118 -93q-91 -103 -105 -293h619v-146h-610q32 -220 32 -319q0 -229 -131 -387h709 v-146h-1032z" />
<glyph unicode="&#xa4;" horiz-adv-x="1290" d="M123 614q0 83 23 154.5t79 159.5l-82 82l90 90l86 -84q87 58 161.5 84t164.5 26t164.5 -26t161.5 -84l86 84l90 -90l-82 -82q56 -88 79 -159.5t23 -154.5t-23 -154t-79 -159l82 -82l-90 -90l-86 84q-87 -59 -161.5 -85t-164.5 -26t-164.5 26t-161.5 85l-86 -84l-90 90 l82 82q-56 88 -79 159t-23 154zM268 614q3 -149 113 -257.5t264 -108.5t264.5 111t110.5 263q0 153 -108.5 256t-266.5 103q-160 0 -268.5 -103t-108.5 -256v-8z" />
<glyph unicode="&#xa5;" horiz-adv-x="1304" d="M90 1536h172l389 -627l391 627h172l-462 -741h362v-129h-391v-168h391v-129h-391v-369h-143v369h-390v129h390v168h-390v129h361z" />
<glyph unicode="&#xa6;" horiz-adv-x="409" d="M127 -494v1000h154v-1000h-154zM127 721v999h154v-999h-154z" />
<glyph unicode="&#xa7;" horiz-adv-x="1267" d="M164 846q0 94 50 169t132 146q-86 113 -86 223q0 111 50 191t129 117.5t175 37.5q102 0 201 -44t172 -127l-117 -97q-109 119 -245 119q-86 0 -143.5 -51.5t-57.5 -140.5q0 -79 42 -124t134 -91l246 -125q46 -23 73 -38.5t67 -45.5t62 -59.5t39 -75t17 -97.5 q0 -145 -168 -309q53 -49 76.5 -102t23.5 -138q0 -175 -109 -274t-270 -99q-137 0 -268 74.5t-217 216.5l121 91q75 -124 152.5 -179t185.5 -55q97 0 167 65t70 160t-96 166q-48 36 -106 64q-62 30 -129 57q-69 31 -112.5 52.5t-98.5 58t-86.5 71.5t-53.5 85t-22 108z M330 874q0 -71 37 -115t112 -83l342 -168q123 102 123 203q0 69 -37.5 114t-111.5 82l-342 168q-123 -99 -123 -201z" />
<glyph unicode="&#xa8;" horiz-adv-x="1304" d="M365 1763q0 48 31.5 80.5t80.5 32.5q47 0 79 -33t32 -80t-32 -78.5t-79 -31.5q-49 0 -80.5 31t-31.5 79zM727 1763q0 48 32 80.5t81 32.5q47 0 78.5 -32.5t31.5 -80.5q0 -47 -31.5 -78.5t-78.5 -31.5q-49 0 -81 31.5t-32 78.5z" />
<glyph unicode="&#xa9;" horiz-adv-x="1570" d="M143 768q0 130 51.5 248t137.5 203.5t204.5 136.5t247.5 51q130 0 248.5 -51t205 -136.5t138 -203.5t51.5 -248t-51.5 -248t-138 -203.5t-205 -136.5t-248.5 -51q-129 0 -247.5 51t-204.5 136.5t-137.5 203.5t-51.5 248zM268 768q0 -141 69.5 -259.5t188 -186.5 t258.5 -68q141 0 260.5 68t189 186.5t69.5 259.5t-69.5 259.5t-189 186.5t-260.5 68q-140 0 -258.5 -68t-188 -186.5t-69.5 -259.5zM438 772q0 141 100.5 241.5t241.5 100.5q207 0 324 -229l-127 -56q-80 144 -197 144q-83 0 -141.5 -59t-58.5 -142q0 -84 58.5 -143.5 t141.5 -59.5q114 0 193 133q87 -26 131 -45q-115 -227 -324 -227q-141 0 -241.5 100.5t-100.5 241.5z" />
<glyph unicode="&#xab;" horiz-adv-x="829" d="M78 492l284 272l80 -94l-190 -183l192 -196l-82 -90zM385 492l285 272l80 -94l-191 -183l193 -196l-82 -90z" />
<glyph unicode="&#xad;" horiz-adv-x="958" d="M123 422v133h713v-133h-713z" />
<glyph unicode="&#xae;" horiz-adv-x="1005" d="M92 1147q0 169 121 289t289 120q169 0 290 -119.5t121 -289.5q0 -168 -121 -288t-290 -120q-168 0 -289 120t-121 288zM162 1147q0 -140 100 -239t240 -99q143 0 243.5 98.5t100.5 239.5q0 142 -100.5 241t-243.5 99q-140 0 -240 -99t-100 -241zM397 948v400h117 q53 0 91 -34t38 -83q0 -61 -76 -107l99 -176h-74l-92 168h-37v-168h-66zM463 1174h51q27 0 45.5 16.5t18.5 40.5q0 26 -18.5 42.5t-45.5 16.5h-51v-116z" />
<glyph unicode="&#xaf;" horiz-adv-x="784" d="M40 1206v82h704v-82h-704z" />
<glyph unicode="&#xb0;" horiz-adv-x="976" d="M123 1184q0 152 107 259t259 107q151 0 258 -107t107 -259q0 -151 -107 -258t-258 -107q-152 0 -259 107t-107 258zM256 1184q0 -95 69 -163.5t164 -68.5t163.5 68.5t68.5 163.5t-68.5 164t-163.5 69t-164 -69t-69 -164z" />
<glyph unicode="&#xb1;" horiz-adv-x="1429" d="M143 0v123h1143v-123h-1143zM143 502v123h508v280h127v-280h508v-123h-508v-281h-127v281h-508z" />
<glyph unicode="&#xb4;" horiz-adv-x="0" d="M-125 1174l215 362h205l-295 -362h-125z" />
<glyph unicode="&#xb6;" horiz-adv-x="1042" d="M61 1053q0 131 66.5 242.5t179.5 176t244 64.5h309v-1536h-121v1417h-118v-1417h-119v573q-189 28 -315 161t-126 319z" />
<glyph unicode="&#xb7;" horiz-adv-x="0" d="M-141 489q0 50 36 85.5t87 35.5q53 0 87.5 -34.5t34.5 -86.5q0 -54 -34 -87t-88 -33q-52 0 -87.5 34t-35.5 86z" />
<glyph unicode="&#xb8;" horiz-adv-x="1185" d="M535 -299h9q26 0 40 1t32.5 5.5t28 13.5t16.5 26.5t7 43.5q0 93 -102 93q-16 0 -25 -1l41 125l61 -8q-31 0 -47 -76q80 0 132 -35.5t52 -109.5q0 -48 -13.5 -82t-33 -52.5t-54.5 -28.5t-66 -12.5t-78 -2.5v100z" />
<glyph unicode="&#xbb;" horiz-adv-x="829" d="M80 291l192 196l-190 183l78 94l286 -272l-284 -291zM387 291l193 196l-191 183l78 94l287 -272l-285 -291z" />
<glyph unicode="&#xbf;" horiz-adv-x="1026" d="M98 393q0 98 44.5 173.5t123.5 154.5q5 5 28 27t34 34q106 102 106 181v170h148v-172q0 -58 -25 -111.5t-62 -92.5t-81 -83t-81 -82.5t-62 -90.5t-25 -108q0 -108 77 -186t185 -78q103 0 177.5 74t86.5 194h148q-13 -186 -130.5 -301.5t-281.5 -115.5q-168 0 -289 121 t-121 292zM410 1456q0 44 28 72t70 28q40 0 68 -28t28 -72q0 -42 -28 -70t-68 -28q-42 0 -70 28t-28 70z" />
<glyph unicode="&#xc0;" horiz-adv-x="1372" d="M10 0l676 1597l676 -1597h-164l-139 330h-744l-139 -330h-166zM331 2083h205l213 -363h-125zM373 469h628l-315 752z" />
<glyph unicode="&#xc1;" horiz-adv-x="1372" d="M10 0l676 1597l676 -1597h-164l-139 330h-744l-139 -330h-166zM373 469h628l-315 752zM686 1720l215 363h205l-295 -363h-125z" />
<glyph unicode="&#xc2;" horiz-adv-x="1372" d="M10 0l676 1597l676 -1597h-164l-139 330h-744l-139 -330h-166zM373 469h628l-315 752zM401 1720l207 232h156l207 -232h-150l-135 125l-135 -125h-150z" />
<glyph unicode="&#xc3;" horiz-adv-x="1372" d="M10 0l676 1597l676 -1597h-164l-139 330h-744l-139 -330h-166zM317 1763q56 90 107 131t113 41q68 0 174 -53l26 -13t33 -16t28.5 -10.5t30.5 -5.5q8 0 16.5 3.5t15 8t15 13t13 14.5t12 17.5t10.5 16t9.5 16.5t7.5 13l127 -41q-99 -175 -220 -175q-47 0 -102.5 25.5 t-106 51t-85.5 25.5q-8 0 -16.5 -3.5t-15 -8t-14.5 -13.5t-12.5 -15t-12 -18t-10 -16.5t-9 -17t-7.5 -13.5zM373 469h628l-315 752z" />
<glyph unicode="&#xc4;" horiz-adv-x="1372" d="M10 0l676 1597l676 -1597h-164l-139 330h-744l-139 -330h-166zM373 469h628l-315 752zM393 1831q0 48 32 80.5t81 32.5q47 0 78.5 -32.5t31.5 -80.5q0 -47 -31.5 -79t-78.5 -32q-49 0 -81 31.5t-32 79.5zM756 1831q0 48 31.5 80.5t80.5 32.5q47 0 79 -33t32 -80t-32 -79 t-79 -32q-49 0 -80.5 31.5t-31.5 79.5z" />
<glyph unicode="&#xc5;" horiz-adv-x="1372" d="M10 0l655 1547q-62 8 -103.5 54t-41.5 108q0 69 48.5 117.5t117.5 48.5q68 0 117 -48.5t49 -117.5q0 -61 -42 -107.5t-103 -54.5l655 -1547h-164l-139 330h-744l-139 -330h-166zM373 469h628l-315 752zM604 1709q0 -34 23.5 -58t58.5 -24q34 0 58 24t24 58q0 35 -24 59.5 t-58 24.5q-35 0 -58.5 -24.5t-23.5 -59.5z" />
<glyph unicode="&#xc6;" horiz-adv-x="1935" d="M119 0l960 1536h746v-145h-631v-535h535v-145h-535v-566h631v-145h-776v430h-494l-264 -430h-172zM643 573h406v635z" />
<glyph unicode="&#xc7;" horiz-adv-x="1558" d="M143 768q0 128 40 248t113 217t170 170t217.5 113t248.5 40q319 0 565 -237l-108 -100q-117 103 -227.5 145.5t-229.5 42.5q-130 0 -248 -50.5t-204 -136.5t-136.5 -204t-50.5 -248t50.5 -248t136.5 -204t204 -136.5t248 -50.5q117 0 226 42t231 146l110 -98 q-240 -233 -551 -239q-21 -16 -33 -71q80 0 132.5 -35.5t52.5 -109.5q0 -48 -13.5 -82t-33.5 -52.5t-55 -28.5t-66 -12.5t-78 -2.5v100h9q26 0 40 1t32.5 5.5t28 13.5t16.5 26.5t7 43.5q0 93 -101 93q-17 0 -26 -1l37 112q-154 7 -293.5 72t-240.5 170t-160.5 248t-59.5 298 z" />
<glyph unicode="&#xc8;" horiz-adv-x="1110" d="M184 0v1536h783v-150h-629v-542h549v-152h-549v-542h629v-150h-783zM220 2042h205l213 -363h-125z" />
<glyph unicode="&#xc9;" horiz-adv-x="1110" d="M184 0v1536h783v-150h-629v-542h549v-152h-549v-542h629v-150h-783zM575 1679l216 363h204l-295 -363h-125z" />
<glyph unicode="&#xca;" horiz-adv-x="1110" d="M184 0v1536h783v-150h-629v-542h549v-152h-549v-542h629v-150h-783zM291 1679l207 232h155l207 -232h-149l-136 125l-135 -125h-149z" />
<glyph unicode="&#xcb;" horiz-adv-x="1110" d="M184 0v1536h783v-150h-629v-542h549v-152h-549v-542h629v-150h-783zM283 1790q0 48 31.5 80.5t80.5 32.5q47 0 79 -33t32 -80t-32 -79t-79 -32q-49 0 -80.5 31.5t-31.5 79.5zM645 1790q0 48 32 80.5t81 32.5q47 0 78.5 -32.5t31.5 -80.5q0 -47 -31.5 -79t-78.5 -32 q-49 0 -81 31.5t-32 79.5z" />
<glyph unicode="&#xcc;" horiz-adv-x="512" d="M-104 2025h204l215 -362h-125zM182 0v1536h154v-1536h-154z" />
<glyph unicode="&#xcd;" horiz-adv-x="512" d="M178 0v1536h154v-1536h-154zM199 1663l215 362h204l-294 -362h-125z" />
<glyph unicode="&#xce;" horiz-adv-x="512" d="M-29 1661l207 231h156l207 -231h-150l-135 125l-135 -125h-150zM180 0v1536h154v-1536h-154z" />
<glyph unicode="&#xcf;" horiz-adv-x="512" d="M-37 1763q0 48 32 80.5t81 32.5q47 0 78.5 -32.5t31.5 -80.5q0 -47 -31.5 -78.5t-78.5 -31.5q-49 0 -81 31.5t-32 78.5zM180 0v1536h154v-1536h-154zM326 1763q0 48 31.5 80.5t80.5 32.5q47 0 79 -33t32 -80t-32 -78.5t-79 -31.5q-49 0 -80.5 31t-31.5 79z" />
<glyph unicode="&#xd0;" horiz-adv-x="1464" d="M14 688v133h168v715h346q237 0 415 -89.5t277 -263t99 -411.5q0 -357 -216.5 -564.5t-574.5 -207.5h-346v688h-168zM338 150h190q297 0 469 163.5t172 458.5t-171.5 454.5t-469.5 159.5h-190v-565h301v-133h-301v-538z" />
<glyph unicode="&#xd1;" horiz-adv-x="1515" d="M184 -2v1599l1002 -1249v1188h145v-1612l-1001 1235v-1161h-146zM426 1763q56 90 106.5 131t112.5 41q68 0 174 -53q2 -1 25.5 -13t34 -16.5t28.5 -10t31 -5.5q9 0 18 3.5t18 11.5t15.5 14.5t15 19.5t12 18.5t11 19.5t8.5 15l127 -41q-99 -175 -219 -175 q-47 0 -102.5 25.5t-106.5 51t-86 25.5q-9 0 -18 -3.5t-17.5 -12l-15 -15t-14.5 -19.5t-11.5 -19t-11 -20t-8.5 -16z" />
<glyph unicode="&#xd2;" horiz-adv-x="1830" d="M123 768q0 107 28.5 209t80 188.5t125 159t160 123.5t189 79.5t209.5 28.5q160 0 306.5 -62.5t253 -168t170 -251.5t63.5 -306t-63.5 -306.5t-170 -251.5t-253 -167.5t-306.5 -62.5t-306.5 62.5t-253 167.5t-169.5 251.5t-63 306.5zM272 768q0 -129 51.5 -247.5t138 -204 t205.5 -136.5t248 -51t248 51t205.5 136.5t138.5 204t52 247.5t-52 247.5t-138.5 204t-205.5 136.5t-248 51q-130 0 -248.5 -51t-205 -136.5t-138 -203.5t-51.5 -248zM560 2042h205l213 -363h-125z" />
<glyph unicode="&#xd3;" horiz-adv-x="1830" d="M123 768q0 107 28.5 209t80 188.5t125 159t160 123.5t189 79.5t209.5 28.5q160 0 306.5 -62.5t253 -168t170 -251.5t63.5 -306t-63.5 -306.5t-170 -251.5t-253 -167.5t-306.5 -62.5t-306.5 62.5t-253 167.5t-169.5 251.5t-63 306.5zM272 768q0 -129 51.5 -247.5t138 -204 t205.5 -136.5t248 -51t248 51t205.5 136.5t138.5 204t52 247.5t-52 247.5t-138.5 204t-205.5 136.5t-248 51q-130 0 -248.5 -51t-205 -136.5t-138 -203.5t-51.5 -248zM915 1679l215 363h205l-295 -363h-125z" />
<glyph unicode="&#xd4;" horiz-adv-x="1830" d="M123 768q0 107 28.5 209t80 188.5t125 159t160 123.5t189 79.5t209.5 28.5q160 0 306.5 -62.5t253 -168t170 -251.5t63.5 -306t-63.5 -306.5t-170 -251.5t-253 -167.5t-306.5 -62.5t-306.5 62.5t-253 167.5t-169.5 251.5t-63 306.5zM272 768q0 -129 51.5 -247.5t138 -204 t205.5 -136.5t248 -51t248 51t205.5 136.5t138.5 204t52 247.5t-52 247.5t-138.5 204t-205.5 136.5t-248 51q-130 0 -248.5 -51t-205 -136.5t-138 -203.5t-51.5 -248zM631 1679l207 232h155l207 -232h-149l-136 125l-135 -125h-149z" />
<glyph unicode="&#xd5;" horiz-adv-x="1830" d="M123 768q0 107 28.5 209t80 188.5t125 159t160 123.5t189 79.5t209.5 28.5q160 0 306.5 -62.5t253 -168t170 -251.5t63.5 -306t-63.5 -306.5t-170 -251.5t-253 -167.5t-306.5 -62.5t-306.5 62.5t-253 167.5t-169.5 251.5t-63 306.5zM272 768q0 -129 51.5 -247.5t138 -204 t205.5 -136.5t248 -51t248 51t205.5 136.5t138.5 204t52 247.5t-52 247.5t-138.5 204t-205.5 136.5t-248 51q-130 0 -248.5 -51t-205 -136.5t-138 -203.5t-51.5 -248zM547 1722q56 90 106.5 131t112.5 41q68 0 174 -53q2 -1 25.5 -13t34 -16.5t28.5 -10t31 -5.5q9 0 18 3.5 t18 11.5t15.5 14.5t15 19.5t12 18.5t11 19.5t8.5 15l127 -40q-100 -176 -220 -176q-47 0 -102.5 25.5t-106 51t-85.5 25.5q-9 0 -18 -3.5t-17.5 -12l-15 -15t-14.5 -19.5t-11.5 -19t-11 -20t-8.5 -16z" />
<glyph unicode="&#xd6;" horiz-adv-x="1830" d="M123 768q0 107 28.5 209t80 188.5t125 159t160 123.5t189 79.5t209.5 28.5q160 0 306.5 -62.5t253 -168t170 -251.5t63.5 -306t-63.5 -306.5t-170 -251.5t-253 -167.5t-306.5 -62.5t-306.5 62.5t-253 167.5t-169.5 251.5t-63 306.5zM272 768q0 -129 51.5 -247.5t138 -204 t205.5 -136.5t248 -51t248 51t205.5 136.5t138.5 204t52 247.5t-52 247.5t-138.5 204t-205.5 136.5t-248 51q-130 0 -248.5 -51t-205 -136.5t-138 -203.5t-51.5 -248zM623 1790q0 48 31.5 80.5t80.5 32.5q47 0 79 -33t32 -80t-32 -79t-79 -32q-49 0 -80.5 31.5t-31.5 79.5z M985 1790q0 48 32 80.5t81 32.5q47 0 78.5 -32.5t31.5 -80.5q0 -47 -31.5 -79t-78.5 -32q-49 0 -81 31.5t-32 79.5z" />
<glyph unicode="&#xd7;" horiz-adv-x="1304" d="M203 123l358 358l-358 359l88 90l358 -361l361 361l88 -90l-359 -359l359 -358l-88 -90l-361 360l-358 -360z" />
<glyph unicode="&#xd8;" horiz-adv-x="1871" d="M143 768q0 160 63.5 306t170 251.5t253 168t306.5 62.5q200 0 401 -110l74 110h131l-115 -172q302 -251 302 -616q0 -160 -63.5 -306.5t-170 -251.5t-253 -167.5t-306.5 -62.5q-193 0 -377 94l-63 -94h-131l102 153q-156 125 -240 286t-84 349zM293 768q0 -148 66.5 -278 t191.5 -230l704 1061q-165 86 -319 86q-130 0 -249 -51t-205 -137t-137.5 -204t-51.5 -247zM641 201q156 -72 295 -72q129 0 248 51t205.5 136.5t138 204t51.5 247.5q0 279 -236 492z" />
<glyph unicode="&#xd9;" horiz-adv-x="1331" d="M174 432v1104h148v-1104q0 -120 98 -211.5t246 -91.5q150 0 247 91t97 212v1104h147v-1104q0 -119 -65 -223t-178.5 -166.5t-247.5 -62.5q-132 0 -246 62.5t-180 167t-66 222.5zM334 2025h203l215 -362h-125z" />
<glyph unicode="&#xda;" horiz-adv-x="1331" d="M174 432v1104h148v-1104q0 -120 98 -211.5t246 -91.5q150 0 247 91t97 212v1104h147v-1104q0 -119 -65 -223t-178.5 -166.5t-247.5 -62.5q-132 0 -246 62.5t-180 167t-66 222.5zM666 1679l215 363h204l-294 -363h-125z" />
<glyph unicode="&#xdb;" horiz-adv-x="1331" d="M174 432v1104h148v-1104q0 -120 98 -211.5t246 -91.5q150 0 247 91t97 212v1104h147v-1104q0 -119 -65 -223t-178.5 -166.5t-247.5 -62.5q-132 0 -246 62.5t-180 167t-66 222.5zM381 1661l207 231h155l207 -231h-149l-135 125l-136 -125h-149z" />
<glyph unicode="&#xdc;" horiz-adv-x="1331" d="M174 432v1104h148v-1104q0 -120 98 -211.5t246 -91.5q150 0 247 91t97 212v1104h147v-1104q0 -119 -65 -223t-178.5 -166.5t-247.5 -62.5q-132 0 -246 62.5t-180 167t-66 222.5zM373 1790q0 48 31.5 80.5t80.5 32.5q47 0 79 -33t32 -80t-32 -79t-79 -32q-49 0 -80.5 31.5 t-31.5 79.5zM735 1790q0 48 32 80.5t81 32.5q47 0 78.5 -32.5t31.5 -80.5q0 -47 -31.5 -79t-78.5 -32q-49 0 -81 31.5t-32 79.5z" />
<glyph unicode="&#xdd;" horiz-adv-x="1222" d="M20 1536h173l417 -635l420 635h172l-520 -786v-750h-143v750zM611 1679l215 363h205l-295 -363h-125z" />
<glyph unicode="&#xdf;" horiz-adv-x="1144" d="M184 0v1182q0 147 102.5 250.5t245.5 103.5t246 -103.5t103 -250.5q0 -144 -123 -267q127 -76 195.5 -189.5t68.5 -248.5q0 -200 -141 -342t-361 -155v143q161 12 261 112.5t100 241.5t-100 241.5t-261 112.5v142q103 12 161 70t58 139q0 86 -60.5 147.5t-146.5 61.5 t-146 -61t-60 -148v-1182h-142z" />
<glyph unicode="&#xe0;" d="M123 481q0 136 67.5 251.5t183 183t251.5 67.5q101 0 195.5 -39.5t162.5 -112.5v132h143v-963h-143v131q-68 -73 -162.5 -112t-195.5 -39q-136 0 -251.5 67t-183 182.5t-67.5 251.5zM196 1468h204l213 -362h-125zM266 481q0 -148 105.5 -253t253.5 -105t253 105t105 253 t-105 253.5t-253 105.5t-253.5 -105.5t-105.5 -253.5z" />
<glyph unicode="&#xe1;" d="M123 481q0 136 67.5 251.5t183 183t251.5 67.5q101 0 195.5 -39.5t162.5 -112.5v132h143v-963h-143v131q-68 -73 -162.5 -112t-195.5 -39q-136 0 -251.5 67t-183 182.5t-67.5 251.5zM266 481q0 -148 105.5 -253t253.5 -105t253 105t105 253t-105 253.5t-253 105.5 t-253.5 -105.5t-105.5 -253.5zM551 1106l215 362h205l-295 -362h-125z" />
<glyph unicode="&#xe2;" d="M123 481q0 136 67.5 251.5t183 183t251.5 67.5q101 0 195.5 -39.5t162.5 -112.5v132h143v-963h-143v131q-68 -73 -162.5 -112t-195.5 -39q-136 0 -251.5 67t-183 182.5t-67.5 251.5zM266 481q0 -148 105.5 -253t253.5 -105t253 105t105 253t-105 253.5t-253 105.5 t-253.5 -105.5t-105.5 -253.5zM266 1106l207 231h156l207 -231h-150l-135 125l-135 -125h-150z" />
<glyph unicode="&#xe3;" d="M123 481q0 136 67.5 251.5t183 183t251.5 67.5q101 0 195.5 -39.5t162.5 -112.5v132h143v-963h-143v131q-68 -73 -162.5 -112t-195.5 -39q-136 0 -251.5 67t-183 182.5t-67.5 251.5zM182 1149q56 90 106.5 131t112.5 41q68 0 174 -53q2 -1 25.5 -13t34 -16.5t28.5 -10 t31 -5.5q8 0 16.5 3.5t15 8t15 13t13 14.5t12 17.5t10.5 16t9.5 16.5t7.5 13l127 -41q-99 -175 -220 -175q-47 0 -102.5 25.5t-106 50.5t-85.5 25q-7 0 -14.5 -2t-14 -7.5t-12.5 -10t-12.5 -13t-10.5 -14t-10 -16t-8.5 -15t-8 -14.5t-6.5 -12zM266 481q0 -148 105.5 -253 t253.5 -105t253 105t105 253t-105 253.5t-253 105.5t-253.5 -105.5t-105.5 -253.5z" />
<glyph unicode="&#xe4;" d="M123 481q0 136 67.5 251.5t183 183t251.5 67.5q101 0 195.5 -39.5t162.5 -112.5v132h143v-963h-143v131q-68 -73 -162.5 -112t-195.5 -39q-136 0 -251.5 67t-183 182.5t-67.5 251.5zM258 1217q0 48 32 80t81 32q47 0 78.5 -32.5t31.5 -79.5t-31.5 -79t-78.5 -32 q-49 0 -81 31.5t-32 79.5zM266 481q0 -148 105.5 -253t253.5 -105t253 105t105 253t-105 253.5t-253 105.5t-253.5 -105.5t-105.5 -253.5zM621 1217q0 48 31.5 80t80.5 32q47 0 79 -32.5t32 -79.5t-32 -79t-79 -32q-49 0 -80.5 31.5t-31.5 79.5z" />
<glyph unicode="&#xe5;" d="M123 481q0 136 67.5 251.5t183 183t251.5 67.5q101 0 195.5 -39.5t162.5 -112.5v132h143v-963h-143v131q-68 -73 -162.5 -112t-195.5 -39q-136 0 -251.5 67t-183 182.5t-67.5 251.5zM266 481q0 -148 105.5 -253t253.5 -105t253 105t105 253t-105 253.5t-253 105.5 t-253.5 -105.5t-105.5 -253.5zM385 1270q0 69 48.5 117.5t117.5 48.5q68 0 117 -48.5t49 -117.5q0 -67 -49 -115.5t-117 -48.5q-69 0 -117.5 48t-48.5 116zM469 1270q0 -34 23.5 -58t58.5 -24q34 0 58 24t24 58q0 35 -24 59.5t-58 24.5q-35 0 -58.5 -24.5t-23.5 -59.5z" />
<glyph unicode="&#xe6;" horiz-adv-x="1832" d="M92 270q0 95 53 170.5t142 112.5h454v98q0 95 -66.5 142t-164.5 47q-78 0 -142 -35.5t-92 -102.5l-131 56q45 107 144 166t221 59q114 0 206.5 -48t135.5 -136q70 86 171 135t216 49q201 0 345 -141.5t159 -362.5h-858q2 -145 105.5 -248.5t248.5 -103.5 q100 0 184.5 55.5t141.5 159.5l135 -63q-75 -143 -195.5 -221t-265.5 -78q-106 0 -204 44t-171 126l-336 -146q-58 -24 -127 -24q-129 0 -219 81t-90 209zM236 270q0 -68 48 -108.5t117 -40.5q32 0 72 14l268 115v160h-424q-37 -20 -59 -58.5t-22 -81.5zM918 627h643 q-42 93 -129.5 151t-192.5 58q-104 0 -191.5 -58t-129.5 -151z" />
<glyph unicode="&#xe7;" horiz-adv-x="1187" d="M123 481q0 136 67.5 251.5t183 183t251.5 67.5q150 0 274 -82.5t186 -220.5l-131 -55q-43 98 -133 156.5t-196 58.5q-148 0 -253.5 -105.5t-105.5 -253.5t105.5 -253t253.5 -105q106 0 196 58.5t131 156.5l131 -59q-55 -130 -177 -212t-265 -87q-21 -15 -33 -71 q80 0 132.5 -35.5t52.5 -109.5q0 -48 -13.5 -82t-33.5 -52.5t-55 -28.5t-66 -12.5t-78 -2.5v100h9q26 0 40 1t32.5 5.5t28 13.5t16.5 26.5t7 43.5q0 93 -102 93q-16 0 -25 -1l37 113q-196 14 -331.5 158t-135.5 342z" />
<glyph unicode="&#xe8;" horiz-adv-x="1249" d="M123 481q0 136 67.5 251.5t183 183t251.5 67.5t251.5 -67.5t182.5 -183t67 -251.5h-860q0 -148 105.5 -253t253.5 -105q106 0 196 58.5t131 156.5l131 -59q-57 -134 -184 -216.5t-274 -82.5q-136 0 -251.5 67t-183 182.5t-67.5 251.5zM269 1468h205l213 -362h-125z M289 604h672q-43 107 -135 171.5t-201 64.5t-201 -64.5t-135 -171.5z" />
<glyph unicode="&#xe9;" horiz-adv-x="1249" d="M123 481q0 136 67.5 251.5t183 183t251.5 67.5t251.5 -67.5t182.5 -183t67 -251.5h-860q0 -148 105.5 -253t253.5 -105q106 0 196 58.5t131 156.5l131 -59q-57 -134 -184 -216.5t-274 -82.5q-136 0 -251.5 67t-183 182.5t-67.5 251.5zM289 604h672q-43 107 -135 171.5 t-201 64.5t-201 -64.5t-135 -171.5zM625 1106l215 362h204l-294 -362h-125z" />
<glyph unicode="&#xea;" horiz-adv-x="1249" d="M123 481q0 136 67.5 251.5t183 183t251.5 67.5t251.5 -67.5t182.5 -183t67 -251.5h-860q0 -148 105.5 -253t253.5 -105q106 0 196 58.5t131 156.5l131 -59q-57 -134 -184 -216.5t-274 -82.5q-136 0 -251.5 67t-183 182.5t-67.5 251.5zM289 604h672q-43 107 -135 171.5 t-201 64.5t-201 -64.5t-135 -171.5zM340 1106l207 231h155l207 -231h-149l-135 125l-136 -125h-149z" />
<glyph unicode="&#xeb;" horiz-adv-x="1249" d="M123 481q0 136 67.5 251.5t183 183t251.5 67.5t251.5 -67.5t182.5 -183t67 -251.5h-860q0 -148 105.5 -253t253.5 -105q106 0 196 58.5t131 156.5l131 -59q-57 -134 -184 -216.5t-274 -82.5q-136 0 -251.5 67t-183 182.5t-67.5 251.5zM289 604h672q-43 107 -135 171.5 t-201 64.5t-201 -64.5t-135 -171.5zM332 1217q0 48 31.5 80t80.5 32q47 0 79 -32.5t32 -79.5t-32 -79t-79 -32q-49 0 -80.5 31.5t-31.5 79.5zM694 1217q0 48 32 80t81 32q47 0 79 -32.5t32 -79.5t-32 -79t-79 -32q-49 0 -81 31.5t-32 79.5z" />
<glyph unicode="&#xec;" horiz-adv-x="528" d="M-91 1468h205l213 -362h-125zM184 0v963h160v-963h-160z" />
<glyph unicode="&#xed;" horiz-adv-x="528" d="M184 0v963h160v-963h-160zM264 1106l215 362h205l-295 -362h-125z" />
<glyph unicode="&#xee;" horiz-adv-x="528" d="M-20 1106l206 231h156l207 -231h-150l-135 125l-135 -125h-149zM184 0v963h160v-963h-160z" />
<glyph unicode="&#xef;" horiz-adv-x="528" d="M-29 1217q0 48 32 80t81 32q47 0 79 -32.5t32 -79.5t-32 -79t-79 -32q-49 0 -81 31.5t-32 79.5zM184 0v963h160v-963h-160zM334 1217q0 48 31.5 80t80.5 32q47 0 79 -32.5t32 -79.5t-32 -79t-79 -32q-49 0 -80.5 31.5t-31.5 79.5z" />
<glyph unicode="&#xf1;" horiz-adv-x="1095" d="M184 0v963h144v-101q43 58 111.5 89.5t144.5 31.5q153 0 250.5 -108.5t97.5 -264.5v-610h-144v610q0 94 -62 162t-157 68q-94 0 -167.5 -66t-73.5 -158v-616h-144zM189 1149q56 90 107 131t113 41q68 0 174 -53l26 -13t33 -16t28.5 -10.5t30.5 -5.5q8 0 16.5 3.5t15 8 t15 13t13 14.5t12 17.5t10.5 16t9.5 16.5t7.5 13l127 -41q-99 -175 -220 -175q-47 0 -102.5 25.5t-106 50.5t-85.5 25q-7 0 -14.5 -2t-14 -7.5t-12.5 -10t-12.5 -13t-10.5 -14t-10 -16t-8.5 -15t-8 -14.5t-6.5 -12z" />
<glyph unicode="&#xf2;" horiz-adv-x="1249" d="M123 481q0 136 67.5 251.5t183 183t251.5 67.5t251.5 -67.5t182.5 -183t67 -251.5q0 -102 -40 -194.5t-107 -159.5t-159.5 -107t-194.5 -40q-136 0 -251.5 67t-183 182.5t-67.5 251.5zM266 481q0 -148 105.5 -253t253.5 -105t253 105t105 253t-105 253.5t-253 105.5 t-253.5 -105.5t-105.5 -253.5zM269 1468h205l213 -362h-125z" />
<glyph unicode="&#xf3;" horiz-adv-x="1249" d="M123 481q0 136 67.5 251.5t183 183t251.5 67.5t251.5 -67.5t182.5 -183t67 -251.5q0 -102 -40 -194.5t-107 -159.5t-159.5 -107t-194.5 -40q-136 0 -251.5 67t-183 182.5t-67.5 251.5zM266 481q0 -148 105.5 -253t253.5 -105t253 105t105 253t-105 253.5t-253 105.5 t-253.5 -105.5t-105.5 -253.5zM625 1106l215 362h204l-294 -362h-125z" />
<glyph unicode="&#xf4;" horiz-adv-x="1249" d="M123 481q0 136 67.5 251.5t183 183t251.5 67.5t251.5 -67.5t182.5 -183t67 -251.5q0 -102 -40 -194.5t-107 -159.5t-159.5 -107t-194.5 -40q-136 0 -251.5 67t-183 182.5t-67.5 251.5zM266 481q0 -148 105.5 -253t253.5 -105t253 105t105 253t-105 253.5t-253 105.5 t-253.5 -105.5t-105.5 -253.5zM340 1106l207 231h155l207 -231h-149l-135 125l-136 -125h-149z" />
<glyph unicode="&#xf5;" horiz-adv-x="1249" d="M123 481q0 136 67.5 251.5t183 183t251.5 67.5t251.5 -67.5t182.5 -183t67 -251.5q0 -102 -40 -194.5t-107 -159.5t-159.5 -107t-194.5 -40q-136 0 -251.5 67t-183 182.5t-67.5 251.5zM256 1149q56 90 106.5 131t112.5 41q68 0 174 -53q2 -1 25.5 -13t34 -16.5t28.5 -10 t31 -5.5q9 0 18 3.5t18 11.5t15.5 14.5t15 19.5t12 18.5t11 19.5t8.5 15l127 -41q-99 -175 -219 -175q-47 0 -102.5 25.5t-106.5 50.5t-86 25q-9 0 -18 -3.5t-18 -12t-15 -14.5t-14.5 -20t-11.5 -18.5t-11 -19.5l-8 -16zM266 481q0 -148 105.5 -253t253.5 -105t253 105 t105 253t-105 253.5t-253 105.5t-253.5 -105.5t-105.5 -253.5z" />
<glyph unicode="&#xf6;" horiz-adv-x="1249" d="M123 481q0 136 67.5 251.5t183 183t251.5 67.5t251.5 -67.5t182.5 -183t67 -251.5q0 -102 -40 -194.5t-107 -159.5t-159.5 -107t-194.5 -40q-136 0 -251.5 67t-183 182.5t-67.5 251.5zM266 481q0 -148 105.5 -253t253.5 -105t253 105t105 253t-105 253.5t-253 105.5 t-253.5 -105.5t-105.5 -253.5zM332 1217q0 48 31.5 80t80.5 32q47 0 79 -32.5t32 -79.5t-32 -79t-79 -32q-49 0 -80.5 31.5t-31.5 79.5zM694 1217q0 48 32 80t81 32q47 0 79 -32.5t32 -79.5t-32 -79t-79 -32q-49 0 -81 31.5t-32 79.5z" />
<glyph unicode="&#xf7;" horiz-adv-x="1429" d="M143 416v127h1143v-127h-1143zM629 164q0 42 28 70t70 28t70 -28t28 -70t-28 -70t-70 -28t-70 28t-28 70zM629 799q0 42 28 70t70 28t70 -28t28 -70t-28 -70.5t-70 -28.5t-70 28.5t-28 70.5z" />
<glyph unicode="&#xf8;" horiz-adv-x="1249" d="M123 481q0 136 67.5 251.5t183 183t251.5 67.5q82 0 174 -31l67 138h150l-101 -201q211 -163 211 -408q0 -102 -40 -194.5t-107 -159.5t-159.5 -107t-194.5 -40q-72 0 -160 26l-80 -158h-149l110 218q-107 77 -165 184.5t-58 230.5zM270 481q0 -160 146 -282l313 618 q-61 19 -104 19q-146 0 -250.5 -104.5t-104.5 -250.5zM535 141q57 -14 90 -14q146 0 250 104t104 250q0 152 -133 273z" />
<glyph unicode="&#xf9;" horiz-adv-x="1058" d="M154 354v609h143v-609q0 -94 68.5 -162.5t162.5 -68.5q96 0 165 68.5t69 162.5v609h143v-609q0 -155 -110.5 -264.5t-266.5 -109.5q-155 0 -264.5 109.5t-109.5 264.5zM174 1468h205l213 -362h-125z" />
<glyph unicode="&#xfa;" horiz-adv-x="1058" d="M154 354v609h143v-609q0 -94 68.5 -162.5t162.5 -68.5q96 0 165 68.5t69 162.5v609h143v-609q0 -155 -110.5 -264.5t-266.5 -109.5q-155 0 -264.5 109.5t-109.5 264.5zM529 1106l215 362h205l-295 -362h-125z" />
<glyph unicode="&#xfb;" horiz-adv-x="1058" d="M154 354v609h143v-609q0 -94 68.5 -162.5t162.5 -68.5q96 0 165 68.5t69 162.5v609h143v-609q0 -155 -110.5 -264.5t-266.5 -109.5q-155 0 -264.5 109.5t-109.5 264.5zM245 1106l207 231h155l207 -231h-149l-136 125l-135 -125h-149z" />
<glyph unicode="&#xfc;" horiz-adv-x="1058" d="M154 354v609h143v-609q0 -94 68.5 -162.5t162.5 -68.5q96 0 165 68.5t69 162.5v609h143v-609q0 -155 -110.5 -264.5t-266.5 -109.5q-155 0 -264.5 109.5t-109.5 264.5zM237 1217q0 48 31.5 80t80.5 32q47 0 79 -32.5t32 -79.5t-32 -79t-79 -32q-49 0 -80.5 31.5 t-31.5 79.5zM599 1217q0 48 32 80t81 32q47 0 78.5 -32.5t31.5 -79.5t-31.5 -79t-78.5 -32q-49 0 -81 31.5t-32 79.5z" />
<glyph unicode="&#xfd;" horiz-adv-x="1085" d="M61 963h164l336 -746l303 746h160l-623 -1465h-157l241 559zM440 1106l215 362h205l-295 -362h-125z" />
<glyph unicode="&#xff;" horiz-adv-x="1085" d="M61 963h164l336 -746l303 746h160l-623 -1465h-157l241 559zM250 1217q0 48 31.5 80t80.5 32q47 0 79 -32.5t32 -79.5t-32 -79t-79 -32q-49 0 -80.5 31.5t-31.5 79.5zM612 1217q0 48 32 80t81 32q47 0 79 -32.5t32 -79.5t-32 -79t-79 -32q-49 0 -81 31.5t-32 79.5z" />
<glyph unicode="&#x152;" horiz-adv-x="2574" d="M143 768q0 160 64 306t172 251.5t256.5 168t310.5 62.5q200 0 374 -90t284 -245v315h827v-150h-678v-542h594v-152h-594v-542h678v-150h-827v315q-110 -155 -284 -245t-374 -90q-162 0 -310.5 62.5t-256.5 167.5t-172 251.5t-64 306.5zM295 768q0 -173 88.5 -320.5 t238.5 -233t324 -85.5q131 0 251.5 51t208 136.5t139.5 203.5t52 248q0 172 -88 319.5t-238 233.5t-325 86t-325 -86t-238 -233.5t-88 -319.5z" />
<glyph unicode="&#x153;" horiz-adv-x="2109" d="M123 481q0 136 67.5 251.5t183.5 183t253 67.5q258 0 428 -242q170 242 428 242q202 0 346.5 -142t159.5 -362h-859q12 -155 113 -253.5t240 -98.5q99 0 184 55t141 160l138 -61q-72 -144 -196.5 -222.5t-266.5 -78.5q-259 0 -428 241q-169 -241 -428 -241 q-137 0 -253 67t-183.5 182.5t-67.5 251.5zM274 481q0 -146 104 -250t249 -104t248.5 104t103.5 250t-103.5 250.5t-248.5 104.5t-249 -104.5t-104 -250.5zM1165 627h637q-55 103 -139.5 156t-179.5 53t-179 -53t-139 -156z" />
<glyph unicode="&#x178;" horiz-adv-x="1222" d="M20 1536h173l417 -635l420 635h172l-520 -786v-750h-143v750zM318 1790q0 48 32 80.5t81 32.5q47 0 79 -33t32 -80t-32 -79t-79 -32q-49 0 -81 31.5t-32 79.5zM681 1790q0 48 32 80.5t81 32.5q47 0 78.5 -32.5t31.5 -80.5q0 -47 -31.5 -79t-78.5 -32q-49 0 -81 31.5 t-32 79.5z" />
<glyph unicode="&#x2c6;" horiz-adv-x="0" d="M-305 1153l207 231h155l207 -231h-149l-135 125l-136 -125h-149z" />
<glyph unicode="&#x2dc;" horiz-adv-x="0" d="M-389 1202q56 90 106.5 131t112.5 41q68 0 174 -53q2 -1 25.5 -13t34 -16.5t28.5 -10t31 -5.5q9 0 18 3.5t18 11.5t15.5 14.5t15 19.5t12 18.5t11 19.5t8.5 15l127 -41q-99 -175 -219 -175q-47 0 -102.5 25.5t-106.5 51t-86 25.5q-9 0 -18 -3.5t-17.5 -12l-15 -15 t-14.5 -19.5t-11.5 -19t-11 -20t-8.5 -16z" />
<glyph unicode="&#x2000;" horiz-adv-x="1041" />
<glyph unicode="&#x2001;" horiz-adv-x="2083" />
<glyph unicode="&#x2002;" horiz-adv-x="1041" />
<glyph unicode="&#x2003;" horiz-adv-x="2083" />
<glyph unicode="&#x2004;" horiz-adv-x="694" />
<glyph unicode="&#x2005;" horiz-adv-x="520" />
<glyph unicode="&#x2006;" horiz-adv-x="347" />
<glyph unicode="&#x2007;" horiz-adv-x="347" />
<glyph unicode="&#x2008;" horiz-adv-x="260" />
<glyph unicode="&#x2009;" horiz-adv-x="416" />
<glyph unicode="&#x200a;" horiz-adv-x="115" />
<glyph unicode="&#x2010;" horiz-adv-x="958" d="M123 422v133h713v-133h-713z" />
<glyph unicode="&#x2011;" horiz-adv-x="958" d="M123 422v133h713v-133h-713z" />
<glyph unicode="&#x2012;" horiz-adv-x="958" d="M123 422v133h713v-133h-713z" />
<glyph unicode="&#x2013;" horiz-adv-x="1380" d="M143 412v153h1094v-153h-1094z" />
<glyph unicode="&#x2014;" horiz-adv-x="1572" d="M0 412v153h1573v-153h-1573z" />
<glyph unicode="&#x2018;" horiz-adv-x="395" d="M41 1049l186 487h119l-117 -487h-188z" />
<glyph unicode="&#x2019;" horiz-adv-x="395" d="M47 1049l119 487h188l-229 -487h-78z" />
<glyph unicode="&#x201a;" horiz-adv-x="403" d="M92 -240l90 447h191l-162 -447h-119z" />
<glyph unicode="&#x201c;" horiz-adv-x="688" d="M41 1049l186 487h119l-117 -487h-188zM336 1049l188 487h117l-117 -487h-188z" />
<glyph unicode="&#x201d;" horiz-adv-x="688" d="M47 1049l119 487h188l-229 -487h-78zM344 1049l117 487h188l-229 -487h-76z" />
<glyph unicode="&#x201e;" horiz-adv-x="649" d="M92 -240l90 447h191l-162 -447h-119zM338 -240l90 447h190l-161 -447h-119z" />
<glyph unicode="&#x2022;" horiz-adv-x="643" d="M154 489q0 69 49.5 117.5t118.5 48.5q71 0 119 -48t48 -118q0 -72 -47.5 -119.5t-119.5 -47.5q-70 0 -119 48t-49 119z" />
<glyph unicode="&#x2026;" horiz-adv-x="1329" d="M92 100q0 51 35.5 87t87.5 36q50 0 85.5 -36t35.5 -87t-35.5 -85.5t-85.5 -34.5q-52 0 -87.5 34.5t-35.5 85.5zM543 100q0 51 35.5 87t87.5 36q50 0 85 -36t35 -87t-35 -85.5t-85 -34.5q-52 0 -87.5 34.5t-35.5 85.5zM993 100q0 51 35.5 87t87.5 36q50 0 85.5 -36 t35.5 -87t-35.5 -85.5t-85.5 -34.5q-52 0 -87.5 34.5t-35.5 85.5z" />
<glyph unicode="&#x202f;" horiz-adv-x="416" />
<glyph unicode="&#x2039;" horiz-adv-x="522" d="M78 492l284 272l80 -94l-190 -183l192 -196l-82 -90z" />
<glyph unicode="&#x203a;" horiz-adv-x="522" d="M80 291l192 196l-190 183l78 94l286 -272l-284 -291z" />
<glyph unicode="&#x205f;" horiz-adv-x="520" />
<glyph unicode="&#x20ac;" horiz-adv-x="1439" d="M123 541v145h102q-6 43 -6 94t6 92h-102v146h133q86 237 286 377.5t453 140.5h322v-143h-322q-189 0 -342.5 -98t-240.5 -277h778v-146h-821q-7 -46 -7 -92q0 -48 7 -94h821v-145h-780q86 -187 241 -292.5t344 -105.5h322v-143h-322q-253 0 -453 148.5t-286 392.5h-133z " />
<glyph unicode="&#x2122;" horiz-adv-x="1480" d="M102 1397v139h494v-139h-174v-527h-146v527h-174zM682 870v666h78l272 -362l268 362h78v-666h-145v342l-201 -272l-203 272v-342h-147z" />
<glyph unicode="&#x25fc;" horiz-adv-x="962" d="M0 0v963h963v-963h-963z" />
<glyph unicode="&#xfb01;" horiz-adv-x="1222" d="M102 819v144h146v315q0 118 84 202.5t203 84.5q59 0 86 -15v-157q-36 28 -86 28q-60 0 -102 -41.5t-42 -101.5v-315h230v-144h-230v-819h-143v819h-146zM836 1239q0 44 31 75.5t75 31.5t75.5 -31.5t31.5 -75.5t-31.5 -75t-75.5 -31t-75 31t-31 75zM870 0v963h144v-963 h-144z" />
<glyph unicode="&#xfb02;" horiz-adv-x="1173" d="M102 819v144h146v315q0 118 84 202.5t203 84.5q59 0 86 -15v-157q-36 28 -86 28q-60 0 -102 -41.5t-42 -101.5v-315h230v-144h-230v-819h-143v819h-146zM846 0v1536h143v-1536h-143z" />
</font>
</defs>
</svg>
