<?xml version="1.0" standalone="no"?>
<!DOCTYPE svg PUBLIC "-//W3C//DTD SVG 1.1//EN" "http://www.w3.org/Graphics/SVG/1.1/DTD/svg11.dtd" >
<svg xmlns="http://www.w3.org/2000/svg" xmlns:xlink="http://www.w3.org/1999/xlink" version="1.1">
<metadata></metadata>
<defs>
<font id="hans_kendrickheavy" horiz-adv-x="710" >
<font-face units-per-em="1000" ascent="800" descent="-200" />
<missing-glyph horiz-adv-x="240" />
<glyph unicode=" "  horiz-adv-x="240" />
<glyph unicode="&#x09;" horiz-adv-x="240" />
<glyph unicode="&#xa0;" horiz-adv-x="240" />
<glyph unicode="!" horiz-adv-x="262" d="M206 750v-503h-150v503h150zM228 86c0 -53 -43 -96 -97 -96c-53 0 -96 43 -96 96s43 97 96 97c54 0 97 -44 97 -97z" />
<glyph unicode="&#x22;" horiz-adv-x="376" d="M35 750h113l-20 -227h-73zM229 750h113l-20 -227h-73z" />
<glyph unicode="#" horiz-adv-x="665" d="M536 540h95l-19 -131h-94l-18 -132h93l-16 -131h-95l-20 -146h-140l21 146h-74l-20 -146h-140l20 146h-94l18 131h95l18 132h-94l18 131h93l21 146h139l-20 -146h74l20 146h139zM361 277l17 132h-73l-18 -132h74z" />
<glyph unicode="$" horiz-adv-x="600" d="M355 613v-181c95 -37 201 -85 201 -216c0 -134 -88 -202 -201 -221v-61h-90v57c-108 7 -206 66 -240 175l132 62c14 -53 57 -89 108 -100v191c-96 37 -205 84 -205 215c0 118 95 204 205 222v56h90v-55c86 -13 151 -60 188 -146l-133 -62c-11 28 -30 51 -55 64zM265 468 v146c-32 -14 -57 -44 -57 -80c0 -29 23 -49 57 -66zM355 282v-148c31 13 52 39 52 82c0 29 -21 49 -52 66z" />
<glyph unicode="%" horiz-adv-x="789" d="M356 594c0 -92 -72 -166 -160 -166s-161 74 -161 166s73 166 161 166s160 -74 160 -166zM544 751h163l-463 -752h-163zM243 594c0 26 -21 48 -47 48c-27 0 -47 -22 -47 -48s20 -48 47 -48c26 0 47 22 47 48zM754 156c0 -92 -74 -166 -161 -166s-161 74 -161 166 s74 166 161 166s161 -74 161 -166zM640 156c0 26 -21 48 -47 48c-27 0 -48 -22 -48 -48s21 -48 48 -48c26 0 47 22 47 48z" />
<glyph unicode="&#x26;" horiz-adv-x="685" d="M587 379l94 -95l-103 -106l101 -103l-93 -96l-102 104l-21 -21c-47 -49 -110 -75 -177 -75s-130 26 -177 75c-98 100 -99 263 0 363l22 23c-50 75 -43 179 22 246c73 75 193 75 266 0c65 -67 72 -169 -4 -277l-95 95c27 44 22 70 6 86c-22 23 -58 23 -80 0 c-22 -22 -22 -59 0 -81l238 -243zM370 157l21 21l-169 173l-21 -22c-46 -47 -46 -124 0 -172c47 -47 123 -47 169 0z" />
<glyph unicode="'" horiz-adv-x="143" d="M35 750h113l-20 -227h-73z" />
<glyph unicode="(" horiz-adv-x="444" d="M410 -119v-126c-304 28 -375 347 -375 505c0 157 71 477 375 506v-126c-213 -30 -221 -307 -221 -380c0 -74 8 -349 221 -379z" />
<glyph unicode=")" horiz-adv-x="444" d="M35 640v126c304 -29 375 -349 375 -506c0 -158 -71 -477 -375 -505v126c213 30 221 305 221 379c0 73 -8 350 -221 380z" />
<glyph unicode="*" horiz-adv-x="290" d="M255 676v-45l-56 -9l21 -52l-40 -23l-35 43l-35 -43l-40 23l21 52l-56 9v45l56 9l-21 52l40 23l35 -43l35 43l40 -23l-21 -52z" />
<glyph unicode="+" horiz-adv-x="628" d="M585 173h-206v-192h-132v192h-205v130h205v192h132v-192h206v-130z" />
<glyph unicode="," horiz-adv-x="307" d="M109 101h163l-139 -248h-98z" />
<glyph unicode="-" horiz-adv-x="508" d="M458 303v-130h-408v130h408z" />
<glyph unicode="." horiz-adv-x="314" d="M254 87c0 -55 -44 -97 -97 -97c-54 0 -97 43 -97 97c0 52 42 97 97 97c53 0 97 -44 97 -97z" />
<glyph unicode="/" horiz-adv-x="641" d="M51 -245l415 1005h144l-415 -1005h-144z" />
<glyph unicode="0" horiz-adv-x="677" d="M339 -12c-216 0 -304 227 -304 389c0 140 75 389 304 389c228 0 303 -249 303 -389c0 -162 -88 -389 -303 -389zM339 633c-125 0 -153 -160 -153 -255c0 -104 28 -257 153 -257c121 0 152 155 152 254c0 98 -26 258 -152 258z" />
<glyph unicode="1" horiz-adv-x="274" d="M209 750v-750h-140v612h-64v138h204z" />
<glyph unicode="2" horiz-adv-x="570" d="M180 482h-132c0 154 90 284 249 284c133 0 238 -107 238 -239c0 -114 -69 -188 -135 -271l-94 -118h248v-138h-529l297 371c34 44 82 97 82 156c0 57 -49 101 -105 101c-80 0 -119 -52 -119 -146z" />
<glyph unicode="3" horiz-adv-x="619" d="M212 538h-148c0 142 108 228 244 228c139 0 240 -64 240 -212c0 -52 -27 -109 -71 -138c66 -38 107 -106 107 -182c0 -156 -118 -246 -266 -246c-153 0 -280 65 -280 234h147c9 -76 67 -101 136 -101c64 0 115 48 115 113c0 67 -61 115 -124 115h-58v117h58 c47 0 88 38 88 88c0 56 -34 81 -88 81c-62 0 -100 -33 -100 -97z" />
<glyph unicode="4" horiz-adv-x="666" d="M535 750v-482h96v-134h-96v-134h-145v134h-385l448 616h82zM390 268v222l-147 -222h147z" />
<glyph unicode="5" horiz-adv-x="602" d="M280 495h6c181 2 272 -99 272 -249c0 -154 -125 -258 -287 -258c-98 0 -187 44 -271 156l120 78c59 -78 107 -101 154 -101c72 0 134 51 134 127c0 85 -59 126 -134 126c-20 0 -42 -4 -93 -17l-78 57l91 336h343v-133h-226z" />
<glyph unicode="6" horiz-adv-x="624" d="M513 759l-184 -249c147 -4 261 -124 261 -263c0 -150 -129 -264 -280 -264c-154 0 -280 114 -280 264c0 66 31 127 68 177l242 335h173zM310 375c-74 0 -134 -57 -134 -128s60 -128 134 -128s133 57 133 128s-59 128 -133 128z" />
<glyph unicode="7" horiz-adv-x="519" d="M15 750h549l-379 -750h-162l319 612h-327v138z" />
<glyph unicode="8" horiz-adv-x="618" d="M309 -12c-137 0 -271 100 -271 245c0 74 39 137 96 183c-37 37 -61 85 -61 138c0 125 118 212 236 212s236 -87 236 -212c0 -53 -24 -101 -61 -138c62 -38 97 -100 97 -172c0 -148 -129 -256 -272 -256zM309 633c-47 0 -87 -39 -87 -86c0 -49 39 -85 87 -85 c47 0 87 37 87 85c0 47 -40 86 -87 86zM309 363c-68 0 -124 -49 -124 -119s55 -123 124 -123s124 53 124 123s-56 119 -124 119z" />
<glyph unicode="9" horiz-adv-x="624" d="M112 -17l183 249c-147 5 -260 125 -260 264c0 150 129 263 280 263c154 0 280 -114 280 -263c0 -66 -31 -127 -68 -178l-243 -335h-172zM315 368c74 0 133 57 133 128s-59 128 -133 128s-134 -57 -134 -128s60 -128 134 -128z" />
<glyph unicode=":" horiz-adv-x="264" d="M229 384c0 -54 -44 -97 -97 -97c-54 0 -97 44 -97 97s42 97 97 97c53 0 97 -43 97 -97zM229 87c0 -55 -44 -97 -97 -97c-54 0 -97 43 -97 97c0 52 42 97 97 97c53 0 97 -44 97 -97z" />
<glyph unicode=";" horiz-adv-x="244" d="M219 384c0 -54 -44 -97 -97 -97c-54 0 -97 44 -97 97s42 97 97 97c53 0 97 -43 97 -97zM80 101h163l-139 -248h-98z" />
<glyph unicode="&#x3c;" horiz-adv-x="465" d="M233 240l193 -104v-149l-386 207v98l386 189v-146z" />
<glyph unicode="=" horiz-adv-x="488" d="M448 441v-150h-408v150h408zM448 184v-150h-408v150h408z" />
<glyph unicode="&#x3e;" horiz-adv-x="465" d="M426 292v-98l-386 -207v149l193 104l-193 95v146z" />
<glyph unicode="?" horiz-adv-x="559" d="M356 304v-57h-147v58c0 120 164 162 164 244c0 47 -46 80 -91 80c-65 0 -89 -49 -96 -105h-146c12 138 96 236 242 236c119 0 238 -85 238 -211c0 -136 -164 -194 -164 -245zM379 87c0 -55 -44 -97 -97 -97s-97 43 -97 97c0 52 43 97 97 97s97 -44 97 -97z" />
<glyph unicode="@" horiz-adv-x="531" d="M456 358v-247h-88c-14 -5 -30 -8 -45 -8c-75 0 -135 63 -135 137c0 91 90 161 178 129c-9 19 -37 30 -57 30c-92 0 -166 -65 -166 -159c0 -92 79 -160 166 -160h143v-80h-143c-142 0 -254 92 -254 240c0 140 115 250 254 250c75 0 147 -53 147 -132zM323 193 c60 0 60 94 0 94c-61 0 -61 -94 0 -94z" />
<glyph unicode="A" d="M715 0h-158l-55 133h-293l-55 -133h-159l314 750h93zM258 251h195l-98 267z" />
<glyph unicode="B" horiz-adv-x="634" d="M65 750h269c280 0 296 -300 167 -365c171 -75 121 -385 -94 -385h-342v750zM215 436h141c113 0 120 179 -22 179h-119v-179zM215 135h142c132 0 119 188 -1 188h-141v-188z" />
<glyph unicode="C" horiz-adv-x="732" d="M607 240l110 -101c-107 -139 -208 -149 -305 -149c-207 0 -377 173 -377 385s170 385 377 385c94 0 225 -25 303 -148l-107 -103c-51 82 -145 97 -196 97c-124 0 -226 -106 -226 -231s102 -231 226 -231c51 0 128 0 195 96z" />
<glyph unicode="D" horiz-adv-x="729" d="M65 750h206c250 0 424 -138 424 -373c0 -234 -173 -377 -424 -377h-206v750zM216 135h55c173 0 276 86 276 242s-103 238 -276 238h-55v-480z" />
<glyph unicode="E" horiz-adv-x="556" d="M522 0h-457v750h457v-131h-307v-177h268v-130h-268v-182h307v-130z" />
<glyph unicode="F" horiz-adv-x="536" d="M215 0h-150v750h457v-131h-307v-177h268v-130h-268v-312z" />
<glyph unicode="G" horiz-adv-x="782" d="M625 0l-24 49c-63 -44 -134 -59 -189 -59c-207 0 -377 173 -377 385s170 385 377 385c94 0 225 -25 303 -148l-107 -103c-51 82 -145 97 -196 97c-124 0 -226 -106 -226 -231s102 -231 226 -231c45 0 110 0 171 66v82h-165v125h304v-417h-97z" />
<glyph unicode="H" horiz-adv-x="738" d="M673 0h-146v308h-316v-308h-146v750h146v-308h316v308h146v-750z" />
<glyph unicode="I" horiz-adv-x="280" d="M215 750v-750h-150v750h150z" />
<glyph unicode="J" horiz-adv-x="357" d="M292 750v-606c0 -96 -49 -154 -118 -154c-53 0 -102 0 -169 16v154c62 -24 85 -24 109 -24c20 0 28 17 28 24v590h150z" />
<glyph unicode="K" horiz-adv-x="699" d="M336 362l340 -362h-203l-258 291v-291h-150v750h150v-311l266 311h193z" />
<glyph unicode="L" horiz-adv-x="526" d="M501 139v-139h-436v750h150v-611h286z" />
<glyph unicode="M" horiz-adv-x="897" d="M65 0v750h80l303 -387l304 387h80v-750h-146v441l-238 -310l-237 309v-440h-146z" />
<glyph unicode="N" horiz-adv-x="765" d="M700 750v-750h-85l-404 452v-453h-146v751h80l409 -464v464h146z" />
<glyph unicode="O" horiz-adv-x="844" d="M809 375c0 -213 -175 -385 -387 -385s-387 172 -387 385c0 212 175 385 387 385s387 -173 387 -385zM659 375c0 129 -108 235 -237 235c-131 0 -237 -106 -237 -235s108 -235 237 -235s237 106 237 235z" />
<glyph unicode="P" horiz-adv-x="604" d="M65 750h323c124 0 211 -114 211 -232c0 -119 -86 -228 -211 -228h-176v-290h-147v750zM212 421h159c56 0 88 49 88 101s-32 97 -88 97h-159v-198z" />
<glyph unicode="Q" horiz-adv-x="844" d="M709 -21l-75 74c-61 -40 -133 -63 -212 -63c-212 0 -387 172 -387 385c0 212 175 385 387 385s387 -173 387 -385c0 -88 -29 -169 -80 -233l72 -72zM534 337l88 -88c23 37 37 79 37 126c0 129 -108 235 -237 235c-131 0 -237 -106 -237 -235s108 -235 237 -235 c36 0 70 8 102 23l-82 82z" />
<glyph unicode="R" horiz-adv-x="639" d="M655 0h-166l-149 301h-129v-301h-146v750h302c127 0 236 -92 236 -222c0 -89 -53 -159 -130 -198zM212 421h148c58 0 99 41 99 98c0 58 -41 100 -99 100h-148v-198z" />
<glyph unicode="S" horiz-adv-x="600" d="M543 611l-133 -62c-17 44 -53 75 -102 75s-100 -38 -100 -90c0 -114 348 -81 348 -318c0 -159 -124 -226 -268 -226c-117 0 -227 59 -263 176l132 62c17 -65 77 -104 142 -104c59 0 108 27 108 92c0 118 -347 85 -347 318c0 133 121 226 248 226c109 0 191 -48 235 -149z " />
<glyph unicode="T" horiz-adv-x="593" d="M588 750v-131h-216v-619h-151v619h-216v131h583z" />
<glyph unicode="U" d="M655 750v-506c0 -127 -136 -254 -300 -254c-161 0 -300 127 -300 254v506h153v-506c0 -48 55 -107 147 -107c93 0 147 59 147 107v506h153z" />
<glyph unicode="V" d="M355 242l202 508h158l-313 -750h-93l-314 750h159z" />
<glyph unicode="W" horiz-adv-x="1002" d="M436 750l63 -174h5l63 174h148l-143 -343l62 -156h7l208 499h158l-313 -750h-93l-100 238l-99 -238h-93l-314 750h159l208 -499h7l62 155l-144 344h149z" />
<glyph unicode="X" horiz-adv-x="668" d="M424 377l239 -377h-180l-149 265l-149 -265h-180l239 377l-236 373h179l147 -262l147 262h179z" />
<glyph unicode="Y" horiz-adv-x="667" d="M693 750l-286 -394v-356h-148v356l-284 394h177l181 -278l183 278h177z" />
<glyph unicode="Z" horiz-adv-x="650" d="M625 129v-129h-630l374 619h-331v131h585l-376 -621h378z" />
<glyph unicode="[" horiz-adv-x="298" d="M293 -118v-127h-288v995h288v-127h-139v-741h139z" />
<glyph unicode="\" horiz-adv-x="641" d="M190 760l415 -1005h-144l-415 1005h144z" />
<glyph unicode="]" horiz-adv-x="298" d="M6 750h287v-995h-290v127h141v741h-138v127z" />
<glyph unicode="^" horiz-adv-x="519" d="M310 727l169 -403h-129l-91 259l-90 -259h-129l169 403h101z" />
<glyph unicode="_" horiz-adv-x="688" d="M623 0v-105h-558v105h558z" />
<glyph unicode="`" horiz-adv-x="342" d="M23 750l79 -177h-106l-123 177h150z" />
<glyph unicode="a" horiz-adv-x="632" d="M427 0l-10 52c-41 -39 -94 -62 -153 -62c-126 0 -229 109 -229 245s103 245 229 245c59 0 112 -23 153 -62v52h150v-470h-140zM417 235c0 65 -51 117 -116 117s-117 -52 -117 -117s52 -117 117 -117s116 52 116 117z" />
<glyph unicode="b" horiz-adv-x="632" d="M215 750v-331c41 39 94 63 153 63c126 0 229 -111 229 -247s-103 -247 -229 -247c-59 0 -112 24 -153 63v-51h-150v750h150zM215 235c0 -65 51 -117 116 -117s117 52 117 117s-52 117 -117 117s-116 -52 -116 -117z" />
<glyph unicode="c" horiz-adv-x="504" d="M377 183l112 -78c-43 -69 -120 -115 -208 -115c-136 0 -246 109 -246 245c0 135 110 245 246 245c88 0 165 -45 208 -116l-112 -77c-19 35 -53 57 -96 57c-61 0 -110 -49 -110 -109c0 -61 49 -110 110 -110c43 0 77 23 96 58z" />
<glyph unicode="d" horiz-adv-x="632" d="M427 0l-10 52c-41 -39 -94 -62 -153 -62c-126 0 -229 109 -229 245s103 245 229 245c59 0 112 -23 153 -62v332h150v-750h-140zM417 235c0 65 -51 117 -116 117s-117 -52 -117 -117s52 -117 117 -117s116 52 116 117z" />
<glyph unicode="e" horiz-adv-x="555" d="M525 235v-30h-339c8 -68 51 -85 114 -85c40 0 79 24 98 59l106 -80c-47 -68 -121 -109 -204 -109c-150 0 -265 89 -265 245c0 135 110 245 245 245c153 0 245 -92 245 -245zM192 287h188c-4 47 -46 79 -92 79c-47 0 -88 -33 -96 -79z" />
<glyph unicode="f" horiz-adv-x="385" d="M365 600h-8c-30 36 -101 46 -101 -23v-107h109v-123h-109v-347h-150v347h-71v123h71v101c0 142 122 210 259 175v-146z" />
<glyph unicode="g" horiz-adv-x="632" d="M417 3v49c-40 -38 -92 -62 -153 -62c-133 0 -229 117 -229 245s96 245 229 245c61 0 113 -24 153 -62v52h150v-457c0 -164 -130 -257 -285 -257c-91 0 -191 35 -243 114l112 79c31 -44 85 -67 138 -67c74 0 128 44 128 121zM417 235c0 65 -51 117 -116 117 s-117 -52 -117 -117s52 -117 117 -117s116 52 116 117z" />
<glyph unicode="h" horiz-adv-x="588" d="M543 255v-255h-150v255c0 64 -18 99 -74 99c-59 0 -104 -54 -104 -119v-235h-150v750h150v-330c39 37 86 60 141 60c133 0 187 -76 187 -225z" />
<glyph unicode="i" horiz-adv-x="293" d="M243 646c0 -55 -42 -97 -97 -97c-53 0 -96 42 -96 97c0 53 43 96 96 96c55 0 97 -43 97 -96zM221 470v-470h-150v470h150z" />
<glyph unicode="j" horiz-adv-x="283" d="M238 646c0 -55 -42 -97 -97 -97c-53 0 -96 42 -96 97c0 53 43 96 96 96c55 0 97 -43 97 -96zM216 470v-713h-150v713h150z" />
<glyph unicode="k" horiz-adv-x="541" d="M340 235l196 -235h-169l-152 202v-202h-150v750h150v-482l152 202h169z" />
<glyph unicode="l" horiz-adv-x="280" d="M215 750v-750h-150v750h150z" />
<glyph unicode="m" horiz-adv-x="853" d="M808 0h-153v238c0 46 -2 117 -66 117c-66 0 -78 -61 -78 -115v-240h-150v240c0 48 -2 115 -67 115c-63 0 -80 -62 -80 -114v-241h-149v471h149v-48c34 35 81 57 129 57c53 0 102 -26 128 -73c39 47 104 73 164 73c102 0 173 -83 173 -182v-298z" />
<glyph unicode="n" horiz-adv-x="588" d="M543 255v-255h-150v255c0 64 -18 99 -74 99c-59 0 -104 -54 -104 -119v-235h-150v470h150v-50c39 37 86 60 141 60c133 0 187 -76 187 -225z" />
<glyph unicode="o" horiz-adv-x="560" d="M525 235c0 -135 -110 -245 -245 -245s-245 110 -245 245s110 245 245 245s245 -110 245 -245zM397 235c0 65 -52 117 -117 117s-117 -52 -117 -117s52 -117 117 -117s117 52 117 117z" />
<glyph unicode="p" horiz-adv-x="632" d="M215 470v-52c41 39 94 62 153 62c126 0 229 -109 229 -245s-103 -245 -229 -245c-59 0 -112 23 -153 62v-295h-150v713h150zM215 235c0 -65 51 -117 116 -117s117 52 117 117s-52 117 -117 117s-116 -52 -116 -117z" />
<glyph unicode="q" horiz-adv-x="632" d="M417 -243v295c-41 -39 -94 -62 -153 -62c-126 0 -229 109 -229 245s103 245 229 245c59 0 112 -23 153 -62v52h150v-713h-150zM417 235c0 65 -51 117 -116 117s-117 -52 -117 -117s52 -117 117 -117s116 52 116 117z" />
<glyph unicode="r" horiz-adv-x="395" d="M370 319h-5c-73 36 -150 -6 -150 -92v-227h-150v470h150v-56c33 52 86 71 155 56v-151z" />
<glyph unicode="s" horiz-adv-x="467" d="M449 360l-133 -43c-14 37 -39 53 -78 53c-21 0 -56 -5 -56 -32c0 -53 274 -16 274 -197c0 -118 -125 -151 -221 -151c-93 0 -189 42 -223 133l137 46c10 -42 62 -57 100 -57c18 0 56 2 56 28c0 63 -262 21 -262 192c0 104 112 148 201 148s168 -35 205 -120z" />
<glyph unicode="t" horiz-adv-x="360" d="M345 470v-123h-90v-347h-150v347h-90v123h90v170h150v-170h90z" />
<glyph unicode="u" horiz-adv-x="540" d="M495 470v-265c0 -135 -89 -215 -225 -215s-225 80 -225 215v265h150v-259c0 -52 23 -95 75 -95s75 43 75 95v259h150z" />
<glyph unicode="v" horiz-adv-x="522" d="M367 470h150l-168 -470h-176l-168 470h149l107 -318z" />
<glyph unicode="w" horiz-adv-x="814" d="M810 470l-177 -470h-141l-86 286l-85 -286h-142l-174 470h156l90 -297l87 297h136l88 -297l91 297h157z" />
<glyph unicode="x" horiz-adv-x="560" d="M19 470h174l87 -142l87 142h174l-165 -225l179 -245h-183l-92 159l-92 -159h-183l179 245z" />
<glyph unicode="y" horiz-adv-x="556" d="M571 470l-334 -715h-162l134 281l-224 434h175l126 -292l123 292h162z" />
<glyph unicode="z" horiz-adv-x="494" d="M479 129v-129h-464l232 346h-212v124h442l-212 -341h214z" />
<glyph unicode="{" horiz-adv-x="358" d="M328 -121v-121h-83c-101 0 -140 93 -140 155v171c0 14 0 29 -1 44c-1 14 -3 25 -6 34c-6 15 -16 28 -68 52v92c71 32 75 57 75 130v170c0 62 39 155 140 155h83v-121c-73 -5 -82 -7 -82 -44v-173c0 -53 -13 -113 -62 -163c49 -50 62 -110 62 -163v-174 c0 -37 9 -39 82 -44z" />
<glyph unicode="|" horiz-adv-x="240" d="M180 750v-977h-120v977h120z" />
<glyph unicode="}" horiz-adv-x="358" d="M328 306v-92c-52 -24 -62 -37 -68 -52c-3 -9 -5 -20 -6 -34c-1 -15 -1 -30 -1 -44v-171c0 -62 -39 -155 -140 -155h-83v121c73 5 82 7 82 44v174c0 53 13 113 62 163c-49 50 -62 110 -62 163v173c0 37 -9 39 -82 44v121h83c101 0 140 -93 140 -155v-170 c0 -73 4 -98 75 -130z" />
<glyph unicode="~" horiz-adv-x="750" d="M480 342l82 -34c-25 -54 -61 -125 -131 -125c-63 0 -121 65 -155 65c-23 0 -41 -53 -48 -70l-83 35c26 50 65 123 131 123c63 0 121 -65 155 -65c22 0 41 54 49 71z" />
<glyph unicode="&#xa1;" horiz-adv-x="304" d="M223 664c0 -53 -43 -97 -97 -97c-53 0 -96 44 -96 97s43 96 96 96c54 0 97 -43 97 -96zM201 503v-503h-150v503h150z" />
<glyph unicode="&#xa2;" horiz-adv-x="504" d="M312 -8v-73h-70v74c-117 19 -207 119 -207 242c0 122 90 223 207 242v86h70v-85c75 -9 139 -51 177 -114l-112 -77c-14 26 -37 45 -65 53v-211c28 8 51 28 65 54l112 -78c-38 -61 -102 -104 -177 -113zM242 132v205c-42 -16 -71 -56 -71 -102c0 -47 29 -87 71 -103z" />
<glyph unicode="&#xa3;" horiz-adv-x="553" d="M529 112v-123h-504v80l49 33c91 62 103 83 76 272h-77v122h73c9 81 36 132 64 166c44 54 110 88 173 88h146v-123h-146c-21 0 -57 -11 -85 -45c-13 -15 -28 -40 -35 -86h266v-122h-262c15 -113 17 -190 -22 -262h284z" />
<glyph unicode="&#xa4;" horiz-adv-x="620" d="M526 168l40 -40l-78 -78l-40 41c-45 -27 -86 -41 -139 -41s-94 14 -139 41l-40 -41l-78 78l40 40c-26 45 -38 84 -38 132s12 87 38 132l-40 40l78 78l40 -41c45 27 86 41 139 41s94 -14 139 -41l40 41l78 -78l-40 -40c26 -45 38 -84 38 -132s-12 -87 -38 -132zM446 301 c1 74 -58 132 -137 132c-80 0 -139 -58 -138 -132c1 -72 62 -134 138 -134c75 0 136 62 137 134z" />
<glyph unicode="&#xa5;" horiz-adv-x="608" d="M159 376v98l386 189v-146l-193 -95l193 -104v-149zM30 -105v105h558v-105h-558z" />
<glyph unicode="&#xa6;" horiz-adv-x="190" d="M147 840v-474h-105v474h105zM147 233v-474h-105v474h105z" />
<glyph unicode="&#xa7;" horiz-adv-x="609" d="M503 721l-107 -97c-20 24 -61 68 -94 68c-23 0 -42 -19 -42 -42c0 -89 274 -95 274 -290c0 -51 -23 -99 -54 -139c20 -30 30 -67 30 -103c0 -107 -80 -205 -191 -205c-112 0 -202 84 -253 177l111 93c26 -46 64 -125 126 -125c31 0 57 27 57 58c0 88 -285 93 -285 293 c0 56 25 107 62 147c-15 30 -23 64 -23 97c0 106 77 184 183 184c86 0 154 -52 206 -116zM260 372l113 -61c9 11 18 25 18 40c0 23 -22 38 -40 48l-113 61c-9 -11 -18 -25 -18 -40c0 -23 22 -38 40 -48z" />
<glyph unicode="&#xa8;" horiz-adv-x="627" d="M284 878c0 -55 -45 -97 -97 -97c-54 0 -97 43 -97 97c0 52 42 97 97 97c53 0 97 -44 97 -97zM541 878c0 -55 -45 -97 -97 -97c-54 0 -97 43 -97 97c0 52 42 97 97 97c53 0 97 -44 97 -97z" />
<glyph unicode="&#xa9;" horiz-adv-x="726" d="M702 375c0 -180 -153 -327 -339 -327c-185 0 -338 147 -338 327s153 327 338 327c186 0 339 -147 339 -327zM614 375c0 134 -112 241 -251 241c-137 0 -250 -107 -250 -241s113 -241 250 -241c139 0 251 107 251 241zM543 427l-88 -27s-17 64 -94 64 c-49 0 -90 -39 -90 -87s41 -87 90 -87c30 0 71 7 91 57c35 -10 91 -21 91 -21s-41 -130 -182 -130c-102 0 -187 82 -187 181s85 181 187 181c143 0 182 -131 182 -131z" />
<glyph unicode="&#xab;" horiz-adv-x="395" d="M143 240l142 -142l-57 -56l-198 198l198 198l57 -56zM293 240l142 -142l-57 -56l-198 198l198 198l57 -56z" />
<glyph unicode="&#xae;" horiz-adv-x="726" d="M702 375c0 -180 -153 -327 -339 -327c-185 0 -338 147 -338 327s153 327 338 327c186 0 339 -147 339 -327zM614 375c0 134 -112 241 -251 241c-137 0 -250 -107 -250 -241s113 -241 250 -241c139 0 251 107 251 241zM437 352l83 -146h-97l-72 128h-1v-128h-86v338h107 c64 0 119 -46 119 -106c0 -34 -19 -63 -53 -86zM350 411h21c21 0 33 13 33 27c0 15 -13 28 -33 28h-21v-55z" />
<glyph unicode="&#xb0;" horiz-adv-x="467" d="M412 582c0 -99 -80 -179 -178 -179c-99 0 -179 80 -179 179c0 98 80 178 179 178c98 0 178 -80 178 -178zM303 582c0 38 -31 69 -69 69c-39 0 -70 -31 -70 -69c0 -39 31 -70 70 -70c38 0 69 31 69 70z" />
<glyph unicode="&#xb1;" horiz-adv-x="608" d="M583 433v-124h-213v-130h-132v130h-213v124h213v119h132v-119h213zM30 0h558v-105h-558v105z" />
<glyph unicode="&#xb4;" horiz-adv-x="-10" d="M18 750h150l-123 -177h-106z" />
<glyph unicode="&#xb6;" horiz-adv-x="499" d="M415 750v-750h-59v692h-58v-692h-58v280c-120 18 -215 110 -215 234c0 131 109 236 239 236h151z" />
<glyph unicode="&#xb7;" horiz-adv-x="264" d="M224 239c0 -55 -44 -97 -97 -97c-54 0 -97 43 -97 97c0 52 42 97 97 97c53 0 97 -44 97 -97z" />
<glyph unicode="&#xb8;" horiz-adv-x="569" d="M279 4l60 -4c-13 0 -20 -23 -23 -37c47 0 90 -19 90 -71c0 -81 -84 -87 -150 -87v49c35 0 65 9 65 44c0 27 -27 38 -62 35c5 16 20 71 20 71z" />
<glyph unicode="&#xbb;" horiz-adv-x="395" d="M87 438l198 -198l-198 -198l-57 56l142 142l-142 142zM237 438l198 -198l-198 -198l-57 56l142 142l-142 142z" />
<glyph unicode="&#xbf;" horiz-adv-x="491" d="M116 663c0 55 44 97 97 97s97 -43 97 -97c0 -52 -43 -97 -97 -97s-97 44 -97 97zM139 446v57h147v-58c0 -120 -164 -162 -164 -244c0 -47 46 -80 91 -80c65 0 89 49 96 105h146c-12 -138 -96 -236 -242 -236c-119 0 -238 85 -238 211c0 136 164 194 164 245z" />
<glyph unicode="&#xc0;" d="M330 997l78 -177h-106l-122 177h150zM715 0h-158l-55 133h-293l-55 -133h-159l314 750h93zM258 251h195l-98 267z" />
<glyph unicode="&#xc1;" d="M382 997h150l-124 -177h-106zM715 0h-158l-55 133h-293l-55 -133h-159l314 750h93zM258 251h195l-98 267z" />
<glyph unicode="&#xc2;" d="M406 983l139 -163h-129l-61 59l-60 -59h-129l139 163h101zM715 0h-158l-55 133h-293l-55 -133h-159l314 750h93zM258 251h195l-98 267z" />
<glyph unicode="&#xc3;" d="M483 997l98 -48c-63 -113 -121 -174 -245 -89c-14 10 -44 36 -59 36c-16 0 -42 -57 -49 -70l-98 50c67 109 121 173 245 87c14 -9 44 -35 60 -36c14 0 42 57 48 70zM715 0h-158l-55 133h-293l-55 -133h-159l314 750h93zM258 251h195l-98 267z" />
<glyph unicode="&#xc4;" d="M324 917c0 -55 -45 -97 -97 -97c-54 0 -97 43 -97 97c0 52 42 97 97 97c53 0 97 -44 97 -97zM581 917c0 -55 -45 -97 -97 -97c-54 0 -97 43 -97 97c0 52 42 97 97 97c53 0 97 -44 97 -97zM715 0h-158l-55 133h-293l-55 -133h-159l314 750h93zM258 251h195l-98 267z" />
<glyph unicode="&#xc5;" d="M408 748l312 -748h-158l-55 133h-293l-55 -133h-159l313 748c-35 17 -59 53 -59 94c0 59 47 106 106 106c58 0 106 -47 106 -106c0 -41 -24 -76 -58 -94zM360 874c-17 0 -30 -14 -30 -32c0 -17 13 -31 30 -31c16 0 30 15 30 31c0 18 -14 32 -30 32zM263 251h195l-98 267z " />
<glyph unicode="&#xc6;" horiz-adv-x="879" d="M855 123v-123h-410v194h-179l-120 -194h-146l472 750h383v-123h-286v-184h243v-123h-243v-197h286zM343 316h102v159z" />
<glyph unicode="&#xc7;" horiz-adv-x="732" d="M607 240l110 -101c-99 -128 -192 -147 -282 -149c-9 -6 -14 -23 -16 -34c47 0 90 -19 90 -71c0 -81 -84 -87 -150 -87v49c35 0 65 9 65 44c0 27 -27 38 -62 35c4 13 15 51 19 65c-193 17 -346 183 -346 384c0 212 170 385 377 385c94 0 225 -25 303 -148l-107 -103 c-51 82 -145 97 -196 97c-124 0 -226 -106 -226 -231s102 -231 226 -231c51 0 128 0 195 96z" />
<glyph unicode="&#xc8;" horiz-adv-x="556" d="M268 997l78 -177h-106l-122 177h150zM522 0h-457v750h457v-131h-307v-177h268v-130h-268v-182h307v-130z" />
<glyph unicode="&#xc9;" horiz-adv-x="556" d="M320 997h150l-124 -177h-106zM522 0h-457v750h457v-131h-307v-177h268v-130h-268v-182h307v-130z" />
<glyph unicode="&#xca;" horiz-adv-x="556" d="M344 983l139 -163h-129l-61 59l-60 -59h-129l139 163h101zM522 0h-457v750h457v-131h-307v-177h268v-130h-268v-182h307v-130z" />
<glyph unicode="&#xcb;" horiz-adv-x="556" d="M262 917c0 -55 -45 -97 -97 -97c-54 0 -97 43 -97 97c0 52 42 97 97 97c53 0 97 -44 97 -97zM519 917c0 -55 -45 -97 -97 -97c-54 0 -97 43 -97 97c0 52 42 97 97 97c53 0 97 -44 97 -97zM522 0h-457v750h457v-131h-307v-177h268v-130h-268v-182h307v-130z" />
<glyph unicode="&#xcc;" horiz-adv-x="280" d="M114 997l79 -177h-106l-123 177h150zM215 750v-750h-150v750h150z" />
<glyph unicode="&#xcd;" horiz-adv-x="280" d="M166 997h150l-123 -177h-106zM215 750v-750h-150v750h150z" />
<glyph unicode="&#xce;" horiz-adv-x="280" d="M190 983l140 -163h-130l-60 59l-60 -59h-130l140 163h100zM215 750v-750h-150v750h150z" />
<glyph unicode="&#xcf;" horiz-adv-x="280" d="M108 917c0 -55 -44 -97 -96 -97c-54 0 -98 43 -98 97c0 52 42 97 98 97c52 0 96 -44 96 -97zM366 917c0 -55 -46 -97 -98 -97c-54 0 -96 43 -96 97c0 52 42 97 96 97s98 -44 98 -97zM215 750v-750h-150v750h150z" />
<glyph unicode="&#xd0;" horiz-adv-x="655" d="M60 750h206c250 0 424 -138 424 -373c0 -234 -173 -377 -424 -377h-206v321h-70v95h70v334zM211 135h55c173 0 276 86 276 242s-103 238 -276 238h-55v-199h84v-95h-84v-186z" />
<glyph unicode="&#xd1;" horiz-adv-x="765" d="M510 997l98 -48c-63 -113 -121 -174 -245 -89c-14 10 -44 36 -59 36c-16 0 -42 -57 -49 -70l-98 50c67 109 121 173 245 87c14 -9 44 -35 60 -36c14 0 42 57 48 70zM700 750v-750h-85l-404 452v-453h-146v751h80l409 -464v464h146z" />
<glyph unicode="&#xd2;" horiz-adv-x="844" d="M396 997l79 -177h-106l-123 177h150zM809 375c0 -213 -175 -385 -387 -385s-387 172 -387 385c0 212 175 385 387 385s387 -173 387 -385zM659 375c0 129 -108 235 -237 235c-131 0 -237 -106 -237 -235s108 -235 237 -235s237 106 237 235z" />
<glyph unicode="&#xd3;" horiz-adv-x="844" d="M448 997h150l-123 -177h-106zM809 375c0 -213 -175 -385 -387 -385s-387 172 -387 385c0 212 175 385 387 385s387 -173 387 -385zM659 375c0 129 -108 235 -237 235c-131 0 -237 -106 -237 -235s108 -235 237 -235s237 106 237 235z" />
<glyph unicode="&#xd4;" horiz-adv-x="844" d="M472 983l140 -163h-130l-60 59l-60 -59h-130l140 163h100zM809 375c0 -213 -175 -385 -387 -385s-387 172 -387 385c0 212 175 385 387 385s387 -173 387 -385zM659 375c0 129 -108 235 -237 235c-131 0 -237 -106 -237 -235s108 -235 237 -235s237 106 237 235z" />
<glyph unicode="&#xd5;" horiz-adv-x="844" d="M550 997l98 -48c-64 -113 -122 -174 -246 -89c-14 10 -44 36 -58 36c-16 0 -42 -57 -50 -70l-98 50c68 109 122 173 246 87c14 -9 44 -35 60 -36c14 0 42 57 48 70zM809 375c0 -213 -175 -385 -387 -385s-387 172 -387 385c0 212 175 385 387 385s387 -173 387 -385z M659 375c0 129 -108 235 -237 235c-131 0 -237 -106 -237 -235s108 -235 237 -235s237 106 237 235z" />
<glyph unicode="&#xd6;" horiz-adv-x="844" d="M390 917c0 -55 -44 -97 -96 -97c-54 0 -98 43 -98 97c0 52 42 97 98 97c52 0 96 -44 96 -97zM648 917c0 -55 -46 -97 -98 -97c-54 0 -96 43 -96 97c0 52 42 97 96 97s98 -44 98 -97zM809 375c0 -213 -175 -385 -387 -385s-387 172 -387 385c0 212 175 385 387 385 s387 -173 387 -385zM659 375c0 129 -108 235 -237 235c-131 0 -237 -106 -237 -235s108 -235 237 -235s237 106 237 235z" />
<glyph unicode="&#xd7;" horiz-adv-x="541" d="M355 235l147 -147l-83 -85l-148 148l-148 -148l-83 85l147 147l-147 147l83 85l148 -148l148 148l83 -85z" />
<glyph unicode="&#xd8;" horiz-adv-x="844" d="M630 760l-22 -50c116 -67 196 -192 196 -335c0 -213 -175 -385 -387 -385c-42 0 -82 7 -120 19l-8 -19h-84l22 50c-117 66 -197 191 -197 335c0 212 175 385 387 385c42 0 82 -7 120 -19l9 19h84zM288 178l188 424c-19 5 -39 8 -59 8c-131 0 -237 -106 -237 -235 c0 -82 44 -155 108 -197zM546 571l-187 -424c18 -4 38 -7 58 -7c129 0 237 106 237 235c0 82 -43 154 -108 196z" />
<glyph unicode="&#xd9;" d="M329 997l79 -177h-106l-123 177h150zM655 750v-506c0 -127 -136 -254 -300 -254c-161 0 -300 127 -300 254v506h153v-506c0 -48 55 -107 147 -107c93 0 147 59 147 107v506h153z" />
<glyph unicode="&#xda;" d="M381 997h150l-123 -177h-106zM655 750v-506c0 -127 -136 -254 -300 -254c-161 0 -300 127 -300 254v506h153v-506c0 -48 55 -107 147 -107c93 0 147 59 147 107v506h153z" />
<glyph unicode="&#xdb;" d="M406 983l138 -163h-128l-62 59l-60 -59h-128l138 163h102zM655 750v-506c0 -127 -136 -254 -300 -254c-161 0 -300 127 -300 254v506h153v-506c0 -48 55 -107 147 -107c93 0 147 59 147 107v506h153z" />
<glyph unicode="&#xdc;" d="M324 917c0 -55 -46 -97 -98 -97c-54 0 -96 43 -96 97c0 52 42 97 96 97s98 -44 98 -97zM580 917c0 -55 -44 -97 -96 -97c-54 0 -98 43 -98 97c0 52 42 97 98 97c52 0 96 -44 96 -97zM655 750v-506c0 -127 -136 -254 -300 -254c-161 0 -300 127 -300 254v506h153v-506 c0 -48 55 -107 147 -107c93 0 147 59 147 107v506h153z" />
<glyph unicode="&#xdd;" horiz-adv-x="667" d="M360 997h150l-123 -177h-106zM693 750l-286 -394v-356h-148v356l-284 394h177l181 -278l183 278h177z" />
<glyph unicode="&#xdf;" horiz-adv-x="509" d="M25 -1v558c0 124 86 193 205 193c106 0 196 -86 196 -193c0 -37 -16 -84 -44 -110c70 -42 102 -122 102 -201c0 -168 -100 -248 -252 -258v140c60 10 99 38 99 118c0 83 -39 109 -99 119v136c27 3 50 13 50 56c0 29 -22 56 -52 56c-29 0 -52 -27 -52 -56v-558h-153z" />
<glyph unicode="&#xe0;" horiz-adv-x="632" d="M238 717l79 -177h-106l-123 177h150zM427 0l-10 52c-41 -39 -94 -62 -153 -62c-126 0 -229 109 -229 245s103 245 229 245c59 0 112 -23 153 -62v52h150v-470h-140zM417 235c0 65 -51 117 -116 117s-117 -52 -117 -117s52 -117 117 -117s116 52 116 117z" />
<glyph unicode="&#xe1;" horiz-adv-x="632" d="M290 717h150l-123 -177h-106zM427 0l-10 52c-41 -39 -94 -62 -153 -62c-126 0 -229 109 -229 245s103 245 229 245c59 0 112 -23 153 -62v52h150v-470h-140zM417 235c0 65 -51 117 -116 117s-117 -52 -117 -117s52 -117 117 -117s116 52 116 117z" />
<glyph unicode="&#xe2;" horiz-adv-x="632" d="M314 703l140 -163h-130l-60 59l-60 -59h-130l140 163h100zM427 0l-10 52c-41 -39 -94 -62 -153 -62c-126 0 -229 109 -229 245s103 245 229 245c59 0 112 -23 153 -62v52h150v-470h-140zM417 235c0 65 -51 117 -116 117s-117 -52 -117 -117s52 -117 117 -117 s116 52 116 117z" />
<glyph unicode="&#xe3;" horiz-adv-x="632" d="M427 0l-10 52c-41 -39 -94 -62 -153 -62c-126 0 -229 109 -229 245s103 245 229 245c59 0 112 -23 153 -62v52h150v-470h-140zM417 235c0 65 -51 117 -116 117s-117 -52 -117 -117s52 -117 117 -117s116 52 116 117zM392 717l98 -48c-64 -113 -122 -174 -246 -89 c-14 10 -44 36 -58 36c-16 0 -42 -57 -50 -70l-98 50c68 109 122 173 246 87c14 -9 44 -35 60 -36c14 0 42 57 48 70z" />
<glyph unicode="&#xe4;" horiz-adv-x="632" d="M232 637c0 -55 -44 -97 -96 -97c-54 0 -98 43 -98 97c0 52 42 97 98 97c52 0 96 -44 96 -97zM490 637c0 -55 -46 -97 -98 -97c-54 0 -96 43 -96 97c0 52 42 97 96 97s98 -44 98 -97zM427 0l-10 52c-41 -39 -94 -62 -153 -62c-126 0 -229 109 -229 245s103 245 229 245 c59 0 112 -23 153 -62v52h150v-470h-140zM417 235c0 65 -51 117 -116 117s-117 -52 -117 -117s52 -117 117 -117s116 52 116 117z" />
<glyph unicode="&#xe5;" horiz-adv-x="632" d="M370 645c0 -58 -48 -105 -106 -105c-59 0 -106 47 -106 105c0 59 47 106 106 106c58 0 106 -47 106 -106zM294 645c0 18 -14 32 -30 32c-17 0 -30 -14 -30 -32c0 -17 13 -31 30 -31c16 0 30 15 30 31zM427 0l-10 52c-41 -39 -94 -62 -153 -62c-126 0 -229 109 -229 245 s103 245 229 245c59 0 112 -23 153 -62v52h150v-470h-140zM417 235c0 65 -51 117 -116 117s-117 -52 -117 -117s52 -117 117 -117s116 52 116 117z" />
<glyph unicode="&#xe6;" horiz-adv-x="868" d="M711 179l106 -80c-47 -68 -121 -109 -204 -109c-82 0 -147 21 -193 69c-191 -65 -142 -69 -234 -69c-82 0 -151 58 -151 142c0 63 38 120 95 144h222v32c0 45 -46 68 -85 68c-45 0 -82 -23 -94 -54l-122 50c44 88 129 108 206 108c81 0 142 -18 182 -55 c42 34 96 55 154 55c153 0 245 -92 245 -245v-30h-339c8 -68 51 -85 114 -85c40 0 79 24 98 59zM510 287h188c-4 47 -46 79 -92 79c-47 0 -88 -33 -96 -79zM271 111l81 22v63h-147c-8 -5 -30 -19 -30 -47c0 -51 50 -50 96 -38z" />
<glyph unicode="&#xe7;" horiz-adv-x="504" d="M377 183l112 -78c-39 -62 -106 -106 -183 -114c-10 -5 -15 -23 -18 -35c47 0 90 -19 90 -71c0 -81 -84 -87 -150 -87v49c35 0 65 9 65 44c0 27 -27 38 -62 35c4 13 15 52 19 66c-121 15 -215 118 -215 243c0 135 110 245 246 245c88 0 165 -45 208 -116l-112 -77 c-19 35 -53 57 -96 57c-61 0 -110 -49 -110 -109c0 -61 49 -110 110 -110c43 0 77 23 96 58z" />
<glyph unicode="&#xe8;" horiz-adv-x="555" d="M254 717l79 -177h-106l-123 177h150zM525 235v-30h-339c8 -68 51 -85 114 -85c40 0 79 24 98 59l106 -80c-47 -68 -121 -109 -204 -109c-150 0 -265 89 -265 245c0 135 110 245 245 245c153 0 245 -92 245 -245zM192 287h188c-4 47 -46 79 -92 79c-47 0 -88 -33 -96 -79z " />
<glyph unicode="&#xe9;" horiz-adv-x="555" d="M306 717h150l-123 -177h-106zM525 235v-30h-339c8 -68 51 -85 114 -85c40 0 79 24 98 59l106 -80c-47 -68 -121 -109 -204 -109c-150 0 -265 89 -265 245c0 135 110 245 245 245c153 0 245 -92 245 -245zM192 287h188c-4 47 -46 79 -92 79c-47 0 -88 -33 -96 -79z" />
<glyph unicode="&#xea;" horiz-adv-x="555" d="M330 703l140 -163h-130l-60 59l-60 -59h-130l140 163h100zM525 235v-30h-339c8 -68 51 -85 114 -85c40 0 79 24 98 59l106 -80c-47 -68 -121 -109 -204 -109c-150 0 -265 89 -265 245c0 135 110 245 245 245c153 0 245 -92 245 -245zM192 287h188c-4 47 -46 79 -92 79 c-47 0 -88 -33 -96 -79z" />
<glyph unicode="&#xeb;" horiz-adv-x="555" d="M248 637c0 -55 -44 -97 -96 -97c-54 0 -98 43 -98 97c0 52 42 97 98 97c52 0 96 -44 96 -97zM506 637c0 -55 -46 -97 -98 -97c-54 0 -96 43 -96 97c0 52 42 97 96 97s98 -44 98 -97zM525 235v-30h-339c8 -68 51 -85 114 -85c40 0 79 24 98 59l106 -80 c-47 -68 -121 -109 -204 -109c-150 0 -265 89 -265 245c0 135 110 245 245 245c153 0 245 -92 245 -245zM192 287h188c-4 47 -46 79 -92 79c-47 0 -88 -33 -96 -79z" />
<glyph unicode="&#xec;" horiz-adv-x="292" d="M120 717l79 -177h-106l-123 177h150zM221 470v-470h-150v470h150z" />
<glyph unicode="&#xed;" horiz-adv-x="292" d="M172 717h150l-123 -177h-106zM221 470v-470h-150v470h150z" />
<glyph unicode="&#xee;" horiz-adv-x="292" d="M196 703l140 -163h-130l-60 59l-60 -59h-130l140 163h100zM221 470v-470h-150v470h150z" />
<glyph unicode="&#xef;" horiz-adv-x="292" d="M114 637c0 -55 -44 -97 -96 -97c-54 0 -98 43 -98 97c0 52 42 97 98 97c52 0 96 -44 96 -97zM372 637c0 -55 -46 -97 -98 -97c-54 0 -96 43 -96 97c0 52 42 97 96 97s98 -44 98 -97zM221 470v-470h-150v470h150z" />
<glyph unicode="&#xf1;" horiz-adv-x="588" d="M543 255v-255h-150v255c0 64 -18 99 -74 99c-59 0 -104 -54 -104 -119v-235h-150v470h150v-50c39 37 86 60 141 60c133 0 187 -76 187 -225zM432 717l98 -48c-64 -113 -122 -174 -246 -89c-14 10 -44 36 -58 36c-16 0 -42 -57 -50 -70l-98 50c68 109 122 173 246 87 c14 -9 44 -35 60 -36c14 0 42 57 48 70z" />
<glyph unicode="&#xf2;" horiz-adv-x="560" d="M254 717l79 -177h-106l-123 177h150zM525 235c0 -135 -110 -245 -245 -245s-245 110 -245 245s110 245 245 245s245 -110 245 -245zM397 235c0 65 -52 117 -117 117s-117 -52 -117 -117s52 -117 117 -117s117 52 117 117z" />
<glyph unicode="&#xf3;" horiz-adv-x="560" d="M306 717h150l-123 -177h-106zM525 235c0 -135 -110 -245 -245 -245s-245 110 -245 245s110 245 245 245s245 -110 245 -245zM397 235c0 65 -52 117 -117 117s-117 -52 -117 -117s52 -117 117 -117s117 52 117 117z" />
<glyph unicode="&#xf4;" horiz-adv-x="560" d="M330 703l140 -163h-130l-60 59l-60 -59h-130l140 163h100zM525 235c0 -135 -110 -245 -245 -245s-245 110 -245 245s110 245 245 245s245 -110 245 -245zM397 235c0 65 -52 117 -117 117s-117 -52 -117 -117s52 -117 117 -117s117 52 117 117z" />
<glyph unicode="&#xf5;" horiz-adv-x="560" d="M408 717l98 -48c-64 -113 -122 -174 -246 -89c-14 10 -44 36 -58 36c-16 0 -42 -57 -50 -70l-98 50c68 109 122 173 246 87c14 -9 44 -35 60 -36c14 0 42 57 48 70zM525 235c0 -135 -110 -245 -245 -245s-245 110 -245 245s110 245 245 245s245 -110 245 -245zM397 235 c0 65 -52 117 -117 117s-117 -52 -117 -117s52 -117 117 -117s117 52 117 117z" />
<glyph unicode="&#xf6;" horiz-adv-x="560" d="M248 637c0 -55 -44 -97 -96 -97c-54 0 -98 43 -98 97c0 52 42 97 98 97c52 0 96 -44 96 -97zM506 637c0 -55 -46 -97 -98 -97c-54 0 -96 43 -96 97c0 52 42 97 96 97s98 -44 98 -97zM525 235c0 -135 -110 -245 -245 -245s-245 110 -245 245s110 245 245 245 s245 -110 245 -245zM397 235c0 65 -52 117 -117 117s-117 -52 -117 -117s52 -117 117 -117s117 52 117 117z" />
<glyph unicode="&#xf7;" horiz-adv-x="537" d="M371 462c0 -54 -44 -97 -97 -97c-54 0 -97 43 -97 97c0 53 42 97 97 97c53 0 97 -43 97 -97zM498 314v-150h-458v150h458zM371 17c0 -55 -44 -97 -97 -97c-54 0 -97 43 -97 97c0 53 42 97 97 97c53 0 97 -44 97 -97z" />
<glyph unicode="&#xf8;" horiz-adv-x="560" d="M525 235c0 -135 -110 -245 -245 -245c-56 0 -109 19 -150 52l-44 -44l-42 42l43 44c-32 41 -52 94 -52 151c0 135 110 245 245 245c57 0 110 -20 151 -52l43 42l42 -42l-43 -43c33 -41 52 -94 52 -150zM340 336c-18 10 -38 16 -60 16c-65 0 -117 -52 -117 -117 c0 -22 6 -42 16 -60zM382 293l-160 -160c17 -9 37 -15 58 -15c65 0 117 52 117 117c0 21 -6 41 -15 58z" />
<glyph unicode="&#xf9;" horiz-adv-x="540" d="M244 717l79 -177h-106l-123 177h150zM495 470v-265c0 -135 -89 -215 -225 -215s-225 80 -225 215v265h150v-259c0 -52 23 -95 75 -95s75 43 75 95v259h150z" />
<glyph unicode="&#xfa;" horiz-adv-x="540" d="M296 717h150l-123 -177h-106zM495 470v-265c0 -135 -89 -215 -225 -215s-225 80 -225 215v265h150v-259c0 -52 23 -95 75 -95s75 43 75 95v259h150z" />
<glyph unicode="&#xfb;" horiz-adv-x="540" d="M320 703l140 -163h-130l-60 59l-60 -59h-130l140 163h100zM495 470v-265c0 -135 -89 -215 -225 -215s-225 80 -225 215v265h150v-259c0 -52 23 -95 75 -95s75 43 75 95v259h150z" />
<glyph unicode="&#xfc;" horiz-adv-x="540" d="M238 637c0 -55 -44 -97 -96 -97c-54 0 -98 43 -98 97c0 52 42 97 98 97c52 0 96 -44 96 -97zM496 637c0 -55 -46 -97 -98 -97c-54 0 -96 43 -96 97c0 52 42 97 96 97s98 -44 98 -97zM495 470v-265c0 -135 -89 -215 -225 -215s-225 80 -225 215v265h150v-259 c0 -52 23 -95 75 -95s75 43 75 95v259h150z" />
<glyph unicode="&#xfd;" horiz-adv-x="556" d="M304 717h150l-123 -177h-106zM571 470l-334 -715h-162l134 281l-224 434h175l126 -292l123 292h162z" />
<glyph unicode="&#xff;" horiz-adv-x="556" d="M246 637c0 -55 -44 -97 -96 -97c-54 0 -98 43 -98 97c0 52 42 97 98 97c52 0 96 -44 96 -97zM504 637c0 -55 -46 -97 -98 -97c-54 0 -96 43 -96 97c0 52 42 97 96 97s98 -44 98 -97zM571 470l-334 -715h-162l134 281l-224 434h175l126 -292l123 292h162z" />
<glyph unicode="&#x102;" d="M398 975h122c0 -146 -90 -155 -164 -155s-166 9 -166 155h122c0 -55 0 -62 44 -62c42 0 42 7 42 62zM715 0h-158l-55 133h-293l-55 -133h-159l314 750h93zM258 251h195l-98 267z" />
<glyph unicode="&#x103;" horiz-adv-x="632" d="M307 695h122c0 -146 -91 -155 -165 -155s-165 9 -165 155h122c0 -55 0 -62 43 -62s43 7 43 62zM427 0l-10 52c-41 -39 -94 -62 -153 -62c-126 0 -229 109 -229 245s103 245 229 245c59 0 112 -23 153 -62v52h150v-470h-140zM417 235c0 65 -51 117 -116 117 s-117 -52 -117 -117s52 -117 117 -117s116 52 116 117z" />
<glyph unicode="&#x104;" d="M258 251h195l-98 267zM715 0c-32 0 -85 -62 -85 -106c0 -39 34 -42 66 -42v-48c-51 0 -163 13 -163 78c0 49 52 94 93 118h-69l-55 133h-293l-55 -133h-159l314 750h93z" />
<glyph unicode="&#x105;" horiz-adv-x="632" d="M417 235c0 65 -51 117 -116 117s-117 -52 -117 -117s52 -117 117 -117s116 52 116 117zM427 0l-10 52c-41 -39 -94 -62 -153 -62c-126 0 -229 109 -229 245s103 245 229 245c59 0 112 -23 153 -62v52h150v-470c-32 0 -85 -62 -85 -106c0 -39 34 -42 66 -42v-48 c-51 0 -163 13 -163 78c0 49 52 94 93 118h-51z" />
<glyph unicode="&#x106;" horiz-adv-x="732" d="M438 997h150l-123 -177h-106zM607 240l110 -101c-107 -139 -208 -149 -305 -149c-207 0 -377 173 -377 385s170 385 377 385c94 0 225 -25 303 -148l-107 -103c-51 82 -145 97 -196 97c-124 0 -226 -106 -226 -231s102 -231 226 -231c51 0 128 0 195 96z" />
<glyph unicode="&#x107;" horiz-adv-x="504" d="M307 717h150l-123 -177h-106zM377 183l112 -78c-43 -69 -120 -115 -208 -115c-136 0 -246 109 -246 245c0 135 110 245 246 245c88 0 165 -45 208 -116l-112 -77c-19 35 -53 57 -96 57c-61 0 -110 -49 -110 -109c0 -61 49 -110 110 -110c43 0 77 23 96 58z" />
<glyph unicode="&#x10c;" horiz-adv-x="732" d="M602 983l-140 -163h-100l-140 163h130l60 -59l60 59h130zM607 240l110 -101c-107 -139 -208 -149 -305 -149c-207 0 -377 173 -377 385s170 385 377 385c94 0 225 -25 303 -148l-107 -103c-51 82 -145 97 -196 97c-124 0 -226 -106 -226 -231s102 -231 226 -231 c51 0 128 0 195 96z" />
<glyph unicode="&#x10d;" horiz-adv-x="504" d="M470 703l-138 -163h-102l-138 163h128l60 -59l62 59h128zM377 183l112 -78c-43 -69 -120 -115 -208 -115c-136 0 -246 109 -246 245c0 135 110 245 246 245c88 0 165 -45 208 -116l-112 -77c-19 35 -53 57 -96 57c-61 0 -110 -49 -110 -109c0 -61 49 -110 110 -110 c43 0 77 23 96 58z" />
<glyph unicode="&#x10e;" horiz-adv-x="729" d="M570 983l-140 -163h-100l-140 163h130l60 -59l60 59h130zM65 750h206c250 0 424 -138 424 -373c0 -234 -173 -377 -424 -377h-206v750zM216 135h55c173 0 276 86 276 242s-103 238 -276 238h-55v-480z" />
<glyph unicode="&#x10f;" horiz-adv-x="632" d="M731 750h163l-139 -248h-98zM427 0l-10 52c-41 -39 -94 -62 -153 -62c-126 0 -229 109 -229 245s103 245 229 245c59 0 112 -23 153 -62v332h150v-750h-140zM417 235c0 65 -51 117 -116 117s-117 -52 -117 -117s52 -117 117 -117s116 52 116 117z" />
<glyph unicode="&#x110;" horiz-adv-x="729" d="M60 750h206c250 0 424 -138 424 -373c0 -234 -173 -377 -424 -377h-206v321h-70v95h70v334zM211 135h55c173 0 276 86 276 242s-103 238 -276 238h-55v-199h84v-95h-84v-186z" />
<glyph unicode="&#x111;" horiz-adv-x="608" d="M597 626v-95h-35v-531h-140l-10 52c-41 -39 -94 -62 -153 -62c-126 0 -229 109 -229 245s103 245 229 245c59 0 112 -23 153 -62v113h-120v95h120v124h150v-124h35zM296 118c65 0 116 52 116 117s-51 117 -116 117s-117 -52 -117 -117s52 -117 117 -117z" />
<glyph unicode="&#x118;" horiz-adv-x="556" d="M522 0c-32 0 -85 -62 -85 -106c0 -39 34 -42 66 -42v-48c-51 0 -163 13 -163 78c0 49 52 94 93 118h-368v750h457v-131h-307v-177h268v-130h-268v-182h307v-130z" />
<glyph unicode="&#x119;" horiz-adv-x="555" d="M192 287h188c-4 47 -46 79 -92 79c-47 0 -88 -33 -96 -79zM525 235v-30h-339c8 -68 51 -85 114 -85c40 0 79 24 98 59l106 -80c-41 -59 -102 -98 -171 -107h7c-32 0 -85 -62 -85 -106c0 -39 34 -42 66 -42v-48c-51 0 -163 13 -163 78c0 50 54 95 95 119 c-126 17 -218 103 -218 242c0 135 110 245 245 245c153 0 245 -92 245 -245z" />
<glyph unicode="&#x11a;" horiz-adv-x="556" d="M483 983l-139 -163h-101l-139 163h129l60 -59l61 59h129zM522 0h-457v750h457v-131h-307v-177h268v-130h-268v-182h307v-130z" />
<glyph unicode="&#x11b;" horiz-adv-x="555" d="M470 703l-140 -163h-100l-140 163h130l60 -59l60 59h130zM525 235v-30h-339c8 -68 51 -85 114 -85c40 0 79 24 98 59l106 -80c-47 -68 -121 -109 -204 -109c-150 0 -265 89 -265 245c0 135 110 245 245 245c153 0 245 -92 245 -245zM192 287h188c-4 47 -46 79 -92 79 c-47 0 -88 -33 -96 -79z" />
<glyph unicode="&#x131;" horiz-adv-x="292" d="M221 470v-470h-150v470h150z" />
<glyph unicode="&#x139;" horiz-adv-x="526" d="M166 997h150l-123 -177h-106zM501 139v-139h-436v750h150v-611h286z" />
<glyph unicode="&#x13a;" horiz-adv-x="280" />
<glyph unicode="&#x13d;" horiz-adv-x="526" d="M357 760h163l-139 -248h-98zM501 139v-139h-436v750h150v-611h286z" />
<glyph unicode="&#x13e;" horiz-adv-x="280" d="M304 750h163l-139 -248h-98zM215 750v-750h-150v750h150z" />
<glyph unicode="&#x141;" horiz-adv-x="576" d="M211 139h286v-139h-436v287l-59 -42l-42 54l101 71v380h150v-273l67 47l41 -54l-108 -77v-254z" />
<glyph unicode="&#x142;" horiz-adv-x="280" d="M319 470l-108 -77v-393h-150v287l-59 -42l-42 54l101 71v380h150v-273l67 47z" />
<glyph unicode="&#x143;" horiz-adv-x="765" d="M408 997h150l-122 -177h-106zM700 750v-750h-85l-404 452v-453h-146v751h80l409 -464v464h146z" />
<glyph unicode="&#x144;" horiz-adv-x="588" d="M330 717h150l-123 -177h-106zM543 255v-255h-150v255c0 64 -18 99 -74 99c-59 0 -104 -54 -104 -119v-235h-150v470h150v-50c39 37 86 60 141 60c133 0 187 -76 187 -225z" />
<glyph unicode="&#x147;" horiz-adv-x="765" d="M572 983l-139 -163h-101l-139 163h129l60 -59l61 59h129zM700 750v-750h-85l-404 452v-453h-146v751h80l409 -464v464h146z" />
<glyph unicode="&#x148;" horiz-adv-x="588" d="M494 703l-140 -163h-100l-140 163h130l60 -59l60 59h130zM543 255v-255h-150v255c0 64 -18 99 -74 99c-59 0 -104 -54 -104 -119v-235h-150v470h150v-50c39 37 86 60 141 60c133 0 187 -76 187 -225z" />
<glyph unicode="&#x150;" horiz-adv-x="844" d="M338 997h150l-124 -177h-106zM558 997h150l-122 -177h-106zM809 375c0 -213 -175 -385 -387 -385s-387 172 -387 385c0 212 175 385 387 385s387 -173 387 -385zM659 375c0 129 -108 235 -237 235c-131 0 -237 -106 -237 -235s108 -235 237 -235s237 106 237 235z" />
<glyph unicode="&#x151;" horiz-adv-x="560" d="M196 717h150l-124 -177h-106zM416 717h150l-122 -177h-106zM525 235c0 -135 -110 -245 -245 -245s-245 110 -245 245s110 245 245 245s245 -110 245 -245zM397 235c0 65 -52 117 -117 117s-117 -52 -117 -117s52 -117 117 -117s117 52 117 117z" />
<glyph unicode="&#x152;" horiz-adv-x="1173" d="M1128 0h-437v99c-70 -68 -165 -109 -269 -109c-212 0 -387 172 -387 385c0 212 175 385 387 385c104 0 199 -42 269 -109v99h437v-131h-307v-177h268v-130h-268v-182h307v-130zM659 375c0 129 -108 235 -237 235c-131 0 -237 -106 -237 -235s108 -235 237 -235 s237 106 237 235z" />
<glyph unicode="&#x153;" horiz-adv-x="929" d="M887 235v-30h-339c8 -68 51 -85 114 -85c40 0 79 24 98 59l106 -80c-47 -68 -121 -109 -204 -109s-155 27 -203 78c-45 -48 -108 -78 -179 -78c-135 0 -245 110 -245 245s110 245 245 245c72 0 136 -31 181 -80c45 49 109 80 181 80c153 0 245 -92 245 -245zM554 287h188 c-4 47 -46 79 -92 79c-47 0 -88 -33 -96 -79zM397 235c0 65 -52 117 -117 117s-117 -52 -117 -117s52 -117 117 -117s117 52 117 117z" />
<glyph unicode="&#x154;" horiz-adv-x="639" d="M242 997h150l-123 -177h-106zM655 0h-166l-149 301h-129v-301h-146v750h302c127 0 236 -92 236 -222c0 -89 -53 -159 -130 -198zM212 421h148c58 0 99 41 99 98c0 58 -41 100 -99 100h-148v-198z" />
<glyph unicode="&#x155;" horiz-adv-x="395" d="M244 717h150l-124 -177h-106zM370 319h-5c-73 36 -150 -6 -150 -92v-227h-150v470h150v-56c33 52 86 71 155 56v-151z" />
<glyph unicode="&#x158;" horiz-adv-x="639" d="M406 983l-140 -163h-100l-140 163h130l60 -59l60 59h130zM655 0h-166l-149 301h-129v-301h-146v750h302c127 0 236 -92 236 -222c0 -89 -53 -159 -130 -198zM212 421h148c58 0 99 41 99 98c0 58 -41 100 -99 100h-148v-198z" />
<glyph unicode="&#x159;" horiz-adv-x="395" d="M407 703l-139 -163h-101l-139 163h129l60 -59l61 59h129zM370 319h-5c-73 36 -150 -6 -150 -92v-227h-150v470h150v-56c33 52 86 71 155 56v-151z" />
<glyph unicode="&#x15a;" horiz-adv-x="600" d="M334 997h150l-123 -177h-106zM543 611l-133 -62c-17 44 -53 75 -102 75s-100 -38 -100 -90c0 -114 348 -81 348 -318c0 -159 -124 -226 -268 -226c-117 0 -227 59 -263 176l132 62c17 -65 77 -104 142 -104c59 0 108 27 108 92c0 118 -347 85 -347 318 c0 133 121 226 248 226c109 0 191 -48 235 -149z" />
<glyph unicode="&#x15b;" horiz-adv-x="467" d="M270 717h150l-123 -177h-106zM449 360l-133 -43c-14 37 -39 53 -78 53c-21 0 -56 -5 -56 -32c0 -53 274 -16 274 -197c0 -118 -125 -151 -221 -151c-93 0 -189 42 -223 133l137 46c10 -42 62 -57 100 -57c18 0 56 2 56 28c0 63 -262 21 -262 192c0 104 112 148 201 148 s168 -35 205 -120z" />
<glyph unicode="&#x15e;" horiz-adv-x="600" d="M543 611l-133 -62c-17 44 -53 75 -102 75s-100 -38 -100 -90c0 -114 348 -81 348 -318c0 -150 -111 -218 -244 -225c-9 -6 -15 -24 -17 -35c47 0 90 -19 90 -71c0 -81 -84 -87 -150 -87v49c35 0 65 9 65 44c0 27 -27 38 -62 35c4 13 15 51 19 65 c-105 10 -199 69 -232 175l132 62c17 -65 77 -104 142 -104c59 0 108 27 108 92c0 118 -347 85 -347 318c0 133 121 226 248 226c109 0 191 -48 235 -149z" />
<glyph unicode="&#x15f;" horiz-adv-x="467" d="M449 360l-133 -43c-14 37 -39 53 -78 53c-21 0 -56 -5 -56 -32c0 -53 274 -16 274 -197c0 -108 -106 -145 -197 -150c-9 -6 -15 -24 -17 -35c47 0 90 -19 90 -71c0 -81 -84 -87 -150 -87v49c35 0 65 9 65 44c0 27 -27 38 -62 35c4 13 15 52 19 66c-83 8 -162 50 -192 131 l137 46c10 -42 62 -57 100 -57c18 0 56 2 56 28c0 63 -262 21 -262 192c0 104 112 148 201 148s168 -35 205 -120z" />
<glyph unicode="&#x160;" horiz-adv-x="600" d="M498 983l-140 -163h-100l-140 163h130l60 -59l60 59h130zM543 611l-133 -62c-17 44 -53 75 -102 75s-100 -38 -100 -90c0 -114 348 -81 348 -318c0 -159 -124 -226 -268 -226c-117 0 -227 59 -263 176l132 62c17 -65 77 -104 142 -104c59 0 108 27 108 92 c0 118 -347 85 -347 318c0 133 121 226 248 226c109 0 191 -48 235 -149z" />
<glyph unicode="&#x161;" horiz-adv-x="467" d="M434 703l-140 -163h-100l-140 163h130l60 -59l60 59h130zM449 360l-133 -43c-14 37 -39 53 -78 53c-21 0 -56 -5 -56 -32c0 -53 274 -16 274 -197c0 -118 -125 -151 -221 -151c-93 0 -189 42 -223 133l137 46c10 -42 62 -57 100 -57c18 0 56 2 56 28 c0 63 -262 21 -262 192c0 104 112 148 201 148s168 -35 205 -120z" />
<glyph unicode="&#x162;" horiz-adv-x="593" d="M588 750v-131h-216v-619h-53c-8 -6 -13 -23 -15 -34c46 0 90 -19 90 -71c0 -81 -84 -87 -150 -87v49c34 0 64 9 64 44c0 27 -26 38 -62 35c4 12 15 49 19 64h-44v619h-216v131h583z" />
<glyph unicode="&#x163;" horiz-adv-x="360" d="M345 470v-123h-90v-347h-52c-9 -6 -14 -23 -16 -34c47 0 90 -19 90 -71c0 -81 -84 -87 -150 -87v49c35 0 65 9 65 44c0 27 -27 38 -62 35c4 12 14 49 18 64h-43v347h-90v123h90v170h150v-170h90z" />
<glyph unicode="&#x164;" horiz-adv-x="593" d="M486 983l-139 -163h-101l-139 163h129l60 -59l61 59h129zM588 750v-131h-216v-619h-151v619h-216v131h583z" />
<glyph unicode="&#x165;" horiz-adv-x="360" d="M384 779h163l-139 -248h-98zM345 470v-123h-90v-347h-150v347h-90v123h90v170h150v-170h90z" />
<glyph unicode="&#x16e;" d="M461 925c0 -58 -48 -105 -106 -105c-59 0 -106 47 -106 105c0 59 47 106 106 106c58 0 106 -47 106 -106zM385 925c0 18 -14 32 -30 32c-17 0 -30 -14 -30 -32c0 -17 13 -31 30 -31c16 0 30 15 30 31zM655 750v-506c0 -127 -136 -254 -300 -254c-161 0 -300 127 -300 254 v506h153v-506c0 -48 55 -107 147 -107c93 0 147 59 147 107v506h153z" />
<glyph unicode="&#x16f;" horiz-adv-x="540" d="M376 645c0 -58 -48 -105 -106 -105c-59 0 -106 47 -106 105c0 59 47 106 106 106c58 0 106 -47 106 -106zM300 645c0 18 -14 32 -30 32c-17 0 -30 -14 -30 -32c0 -17 13 -31 30 -31c16 0 30 15 30 31zM495 470v-265c0 -135 -89 -215 -225 -215s-225 80 -225 215v265h150 v-259c0 -52 23 -95 75 -95s75 43 75 95v259h150z" />
<glyph unicode="&#x170;" d="M270 997h150l-122 -177h-106zM492 997h150l-124 -177h-106zM655 750v-506c0 -127 -136 -254 -300 -254c-161 0 -300 127 -300 254v506h153v-506c0 -48 55 -107 147 -107c93 0 147 59 147 107v506h153z" />
<glyph unicode="&#x171;" horiz-adv-x="540" d="M186 717h150l-124 -177h-106zM406 717h150l-122 -177h-106zM495 470v-265c0 -135 -89 -215 -225 -215s-225 80 -225 215v265h150v-259c0 -52 23 -95 75 -95s75 43 75 95v259h150z" />
<glyph unicode="&#x178;" horiz-adv-x="667" d="M302 917c0 -55 -44 -97 -96 -97c-54 0 -98 43 -98 97c0 52 42 97 98 97c52 0 96 -44 96 -97zM560 917c0 -55 -46 -97 -98 -97c-54 0 -96 43 -96 97c0 52 42 97 96 97s98 -44 98 -97zM693 750l-286 -394v-356h-148v356l-284 394h177l181 -278l183 278h177z" />
<glyph unicode="&#x179;" horiz-adv-x="650" d="M356 997h150l-122 -177h-106zM625 129v-129h-630l374 619h-331v131h585l-376 -621h378z" />
<glyph unicode="&#x17a;" horiz-adv-x="494" d="M282 717h150l-123 -177h-106zM479 129v-129h-464l232 346h-212v124h442l-212 -341h214z" />
<glyph unicode="&#x17b;" horiz-adv-x="650" d="M398 887c0 -37 -30 -67 -68 -67c-36 0 -66 30 -66 67s30 67 66 67c38 0 68 -30 68 -67zM625 129v-129h-630l374 619h-331v131h585l-376 -621h378z" />
<glyph unicode="&#x17c;" horiz-adv-x="494" d="M323 607c0 -37 -30 -67 -67 -67s-67 30 -67 67s30 67 67 67s67 -30 67 -67zM479 129v-129h-464l232 346h-212v124h442l-212 -341h214z" />
<glyph unicode="&#x17d;" horiz-adv-x="650" d="M520 983l-139 -163h-101l-139 163h129l60 -59l61 59h129zM625 129v-129h-630l374 619h-331v131h585l-376 -621h378z" />
<glyph unicode="&#x17e;" horiz-adv-x="494" d="M446 703l-140 -163h-100l-140 163h130l60 -59l60 59h130zM479 129v-129h-464l232 346h-212v124h442l-212 -341h214z" />
<glyph unicode="&#x192;" horiz-adv-x="592" d="M567 577v-119h-110c-30 0 -54 -21 -60 -48l-8 -48h123v-119h-146l-42 -227c-23 -123 -128 -213 -299 -223v119c112 8 169 59 181 126l39 205h-104v119h126l13 70c16 85 91 145 177 145h110z" />
<glyph unicode="&#x2c6;" horiz-adv-x="401" d="M47 727l139 -163h-129l-61 59l-60 -59h-129l139 163h101z" />
<glyph unicode="&#x2c7;" horiz-adv-x="-10" d="M180 725l-139 -163h-101l-139 163h129l60 -59l61 59h129z" />
<glyph unicode="&#x2d8;" horiz-adv-x="-30" d="M28 790h122c0 -146 -91 -155 -165 -155s-165 9 -165 155h122c0 -55 0 -62 43 -62s43 7 43 62z" />
<glyph unicode="&#x2d9;" horiz-adv-x="-10" d="M62 620c0 -37 -30 -67 -67 -67s-67 30 -67 67s30 67 67 67s67 -30 67 -67z" />
<glyph unicode="&#x2da;" horiz-adv-x="292" d="M101 636c0 -58 -48 -105 -106 -105c-59 0 -106 47 -106 105c0 59 47 106 106 106c58 0 106 -47 106 -106zM25 636c0 18 -14 32 -30 32c-17 0 -30 -14 -30 -32c0 -17 13 -31 30 -31c16 0 30 15 30 31z" />
<glyph unicode="&#x2db;" horiz-adv-x="-30" d="M-15 5l80 -5c-32 0 -85 -62 -85 -106c0 -39 34 -42 66 -42v-48c-51 0 -163 13 -163 78c0 53 60 100 102 123z" />
<glyph unicode="&#x2dc;" horiz-adv-x="750" d="M124 725l98 -48c-63 -113 -121 -174 -245 -89c-14 10 -44 36 -59 36c-16 0 -42 -57 -49 -70l-98 50c67 109 121 173 245 87c14 -9 44 -35 60 -36c14 0 42 57 48 70z" />
<glyph unicode="&#x2dd;" horiz-adv-x="10" d="M-57 750h150l-123 -177h-106zM164 750h150l-123 -177h-106z" />
<glyph unicode="&#x394;" horiz-adv-x="733" d="M367 592l341 -592h-683zM233 120h267l-133 232z" />
<glyph unicode="&#x3a9;" horiz-adv-x="803" d="M779 122v-122h-271l-24 103c117 63 173 161 173 264c0 151 -116 271 -255 271s-255 -120 -255 -271c0 -103 56 -201 173 -264l-24 -103h-271v122h83c-56 77 -83 160 -83 245c0 215 168 393 377 393s377 -178 377 -393c0 -85 -27 -168 -83 -245h83z" />
<glyph unicode="&#x3bc;" horiz-adv-x="634" d="M570 470v-470h-117l-20 48c-65 -94 -183 -75 -221 0v-253h-147v675h147v-217c0 -157 211 -140 211 0v217h147z" />
<glyph unicode="&#x3c0;" horiz-adv-x="503" d="M477 100l2 -115c-123 14 -176 79 -176 154v216h-106v-356h-112v356h-60v116h453v-116h-63v-216c0 -18 12 -31 62 -39z" />
<glyph unicode="&#x2013;" horiz-adv-x="634" d="M584 298v-120h-534v120h534z" />
<glyph unicode="&#x2014;" horiz-adv-x="768" d="M768 298v-120h-768v120h768z" />
<glyph unicode="&#x2018;" horiz-adv-x="247" d="M114 750h98l-74 -248h-163z" />
<glyph unicode="&#x2019;" horiz-adv-x="214" d="M109 750h163l-139 -248h-98z" />
<glyph unicode="&#x201a;" horiz-adv-x="187" d="M90 101h163l-139 -248h-98z" />
<glyph unicode="&#x201c;" horiz-adv-x="457" d="M114 750h98l-74 -248h-163zM334 750h98l-74 -248h-163z" />
<glyph unicode="&#x201d;" horiz-adv-x="453" d="M119 750h163l-139 -248h-98zM339 750h163l-139 -248h-98z" />
<glyph unicode="&#x201e;" horiz-adv-x="488" d="M90 101h163l-139 -248h-98zM300 101h163l-139 -248h-98z" />
<glyph unicode="&#x2020;" horiz-adv-x="428" d="M403 491v-127h-137v-444h-109v444h-132v127h132v259h109v-259h137z" />
<glyph unicode="&#x2021;" horiz-adv-x="448" d="M413 261v-126h-137v-215h-109v215h-132v126h132v148h-132v126h132v215h109v-215h137v-126h-137v-148h137z" />
<glyph unicode="&#x2022;" horiz-adv-x="304" d="M234 239c0 -47 -35 -82 -82 -82c-45 0 -82 35 -82 82c0 45 37 81 82 81c47 0 82 -36 82 -81z" />
<glyph unicode="&#x2026;" horiz-adv-x="942" d="M882 87c0 -55 -44 -97 -97 -97c-54 0 -97 43 -97 97c0 52 42 97 97 97c53 0 97 -44 97 -97zM568 87c0 -55 -44 -97 -97 -97c-54 0 -97 43 -97 97c0 52 42 97 97 97c53 0 97 -44 97 -97zM254 87c0 -55 -44 -97 -97 -97c-54 0 -97 43 -97 97c0 52 42 97 97 97 c53 0 97 -44 97 -97z" />
<glyph unicode="&#x2030;" horiz-adv-x="1133" d="M381 594c0 -92 -72 -166 -160 -166s-161 74 -161 166s73 166 161 166s160 -74 160 -166zM569 751h163l-463 -752h-163zM268 594c0 26 -21 48 -47 48c-27 0 -47 -22 -47 -48s20 -48 47 -48c26 0 47 22 47 48zM779 156c0 -92 -74 -166 -161 -166s-161 74 -161 166 s74 166 161 166s161 -74 161 -166zM1138 156c0 -92 -73 -166 -160 -166c-88 0 -162 74 -162 166s74 166 162 166c87 0 160 -74 160 -166zM665 156c0 26 -21 48 -47 48c-27 0 -48 -22 -48 -48s21 -48 48 -48c26 0 47 22 47 48zM1025 156c0 26 -22 48 -47 48 c-28 0 -48 -22 -48 -48s20 -48 48 -48c25 0 47 22 47 48z" />
<glyph unicode="&#x2039;" horiz-adv-x="324" d="M148 240l142 -142l-57 -56l-198 198l198 198l57 -56z" />
<glyph unicode="&#x203a;" horiz-adv-x="324" d="M92 438l198 -198l-198 -198l-57 56l142 142l-142 142z" />
<glyph unicode="&#x2044;" horiz-adv-x="494" d="M376 760h84l-341 -770h-84z" />
<glyph unicode="&#x20ac;" horiz-adv-x="633" d="M608 122v-122h-170c-155 0 -288 98 -346 244h-67v103h43c-1 4 -1 29 -1 33c0 5 0 29 1 34h-43v102h68c58 143 191 234 345 234h170v-122h-170c-84 0 -160 -39 -209 -112h323v-102h-366v-34v-33h366v-103h-326c50 -78 127 -122 212 -122h170z" />
<glyph unicode="&#x2122;" horiz-adv-x="672" d="M268 750v-71h-83v-254h-76v254h-84v71h243zM648 750v-325h-75v160l-95 -128l-96 128v-160h-76v325h42l130 -173l129 173h41z" />
<glyph unicode="&#x220f;" horiz-adv-x="611" d="M65 750h482v-750h-148v598h-186v-598h-148v750z" />
<glyph unicode="&#x2211;" horiz-adv-x="753" d="M728 139v-139h-721l386 379l-388 371h723v-139h-381l243 -231l-246 -241h384z" />
<glyph unicode="&#x2212;" horiz-adv-x="548" d="M483 291v-105h-418v105h418z" />
<glyph unicode="&#x221a;" horiz-adv-x="975" d="M775 750h175l-436 -906h-120l-148 412h-221v158h332l110 -355z" />
<glyph unicode="&#x221e;" horiz-adv-x="1114" d="M1089 234c0 -134 -117 -244 -264 -244c-114 0 -206 72 -268 142c-62 -70 -154 -142 -268 -142c-147 0 -264 110 -264 244c0 133 117 244 264 244c114 0 206 -72 268 -142c62 70 154 142 268 142c147 0 264 -111 264 -244zM482 234c-54 70 -125 128 -193 128 c-74 0 -137 -56 -137 -128s63 -129 137 -129c68 0 139 59 193 129zM962 234c0 72 -62 128 -137 128c-68 0 -139 -58 -193 -128c54 -70 125 -129 193 -129c75 0 137 57 137 129z" />
<glyph unicode="&#x2248;" horiz-adv-x="466" d="M355 442l82 -34c-25 -54 -61 -125 -131 -125c-63 0 -121 65 -155 65c-23 0 -41 -53 -48 -70l-83 35c26 50 65 123 131 123c63 0 121 -65 155 -65c22 0 41 54 49 71zM355 242l82 -34c-25 -54 -61 -125 -131 -125c-63 0 -121 65 -155 65c-23 0 -41 -53 -48 -70l-83 35 c26 50 65 123 131 123c63 0 121 -65 155 -65c22 0 41 54 49 71z" />
<glyph unicode="&#x2260;" horiz-adv-x="565" d="M540 199v-98h-253l-67 -111h-129l67 111h-133v98h193l43 71h-236v98h295l68 112h128l-67 -112h91v-98h-151l-43 -71h194z" />
<glyph horiz-adv-x="627" d="M632 626v-95h-305v95h305z" />
<glyph horiz-adv-x="-30" d="M138 416v-95h-305v95h305z" />
<glyph horiz-adv-x="240" d="M283 524l41 -54l-317 -225l-42 54z" />
<glyph horiz-adv-x="906" d="M831 378c0 -209 -169 -378 -378 -378s-378 169 -378 378s169 378 378 378s378 -169 378 -378zM796 378c0 190 -153 343 -343 343s-343 -153 -343 -343s153 -343 343 -343s343 153 343 343zM274 509v-262c0 -10 -8 -17 -18 -17c-9 0 -17 7 -17 17v262c0 10 8 18 17 18 c10 0 18 -8 18 -18zM470 509v-262c0 -10 -7 -17 -17 -17s-17 7 -17 17v262c0 10 7 18 17 18s17 -8 17 -18zM543 378l119 -119c7 -7 7 -18 0 -24c-7 -7 -18 -7 -24 0l-132 131c-6 7 -6 18 0 24l132 131c4 5 7 5 13 5h2c4 -1 5 -2 6 -2s1 -1 3 -3c7 -6 7 -17 0 -24zM322 395 h65c10 0 18 -7 18 -17s-8 -17 -18 -17h-65c-10 0 -17 7 -17 17s7 17 17 17z" />
</font>
</defs>
</svg>
